Торрент файл
скачать торрент магнет ссылка Добавлен: 06 авг 2017, 21:33
Размер: 12.05 ГБ
Сидеров: 25
Личеров: 7
Статус: (salma3)
Автор

СообщениеДобавлено: 06 авг 2017, 21:33 

В сети
Супермодератор
Аватара пользователя
Дата регистрации:
15 фев 2012, 16:44
Возраст: 29
Спасибо: 7400 / 2147
Сообщения: 78259
Год выхода: 2007
Жанр: Ужасы, фантастика, триллер
Режиссер: Хуан Карлос Фреснадильо

В ролях: Роберт Карлайл, Роуз Бирн, Джереми Реннер, Хэролд Перрино, Катрин МакКормак, Макинтош Магглтон, Имоджен Путс, Идрис Эльба, Аманда Уокер, Шахид Ахмед, Гарфилд Морган, Эмили Бичем, Бинс Эль-Балави, Меган Попьел, Стюарт Александр, Филип Балкок, Крис Риман, Тристан Тейт, Уильям Мередит, Мэтт Ривз, Томас Гарви, Том Боделл, Эндрю Байрон

О фильме:
Апокалипсис вернулся к нам спустя долгие 5 лет ожидания. 28 недель спустя, поделенный на секторы Лондон, частично очищен от инфекции, власти пытаются организовать безопасный комфортный быт спасенных 15000 человек, собрав их в одном охраняемом районе. Но есть одно «но» — в карантинную зону доставлена семья, имеющая врожденные предпосылки к иммунитету вируса «бешенства», одновременно являющиеся ее переносчиками. Банальная семейная драма стала той роковой ошибкой, повлекшей очередной Армагеддон. Вирус попадает в закрытое пространство, переполненное паникующей толпой.



Страна: Великобритания, Испания
Продолжительность: 01:40:06
Перевод: Дублированный, профессиональный двухголосый, авторский

Файл
Кодек: MPEG-4 AVC, h.264
Качество: BDRip 1080p
Видео: 13218 Кбит/с, 1920x1040, 23.976 кадр/с

Аудио 1: Русский : DTS 5.1, 48 KHz, 768 kbps - Дубляж
Аудио 2: Русский : Dolby Digital Audio, 5.1, 48 kHz, 448 kbps - Дубляж
Аудио 3: Русский : Dolby Digital Audio, 5.1, 48 kHz, 448 kbps - Профессиональный двухголосый закадровый (Гланц и Королёва)
Аудио 4: Русский : Dolby Digital Audio, 5.1, 48 kHz, 448 kbps - Авторский (Дольский)
Аудио 5: Русский : Dolby Digital Audio, 5.1, 48 kHz, 448 kbps - Авторский (Горчаков)
Аудио 6: Английский : DTS 5.1, 48 KHz, 1536 kbps - Оригинал
Субтитры: Русские, английские
Главы: Есть

Общее
Уникальный идентификатор : 180102298448190309767199573590780743337 (0x877E70E2FAC6441D8626BE15D2C50EA9)
Полное имя : D:\РЕМУКС!!!!!\28 Недель спустя.BDRip.mkv
Формат : Matroska
Версия формата : Version 4 / Version 2
Размер файла : 12,1 Гбайт
Продолжительность : 1 ч. 40 м.
Общий поток : 17,2 Мбит/сек
Название фильма : 28 Недель спустя.BDRip.thx:SPOMOPS.
Дата кодирования : UTC 2017-06-30 16:12:08
Программа кодирования : mkvmerge v6.1.0 ('Old Devil') built on Mar 4 2013 09:10:42
Библиотека кодирования : libebml v1.3.0 + libmatroska v1.4.0

Видео
Идентификатор : 1
Формат : AVC
Формат/Информация : Advanced Video Codec
Профиль формата : High@L4.1
Параметр CABAC формата : Да
Параметр ReFrames формата : 4 кадра
Идентификатор кодека : V_MPEG4/ISO/AVC
Продолжительность : 1 ч. 40 м.
Битрейт : 13,2 Мбит/сек
Ширина : 1912 пикселей
Высота : 1040 пикселей
Соотношение сторон : 1,85:1
Режим частоты кадров : Постоянный
Частота кадров : 23,976 кадра/сек
Цветовое пространство : YUV
Субдискретизация насыщенности : 4:2:0
Битовая глубина : 8 бит
Тип развёртки : Прогрессивная
Бит/(Пиксели*Кадры) : 0.277
Размер потока : 8,98 Гбайт (74%)
Заголовок : 28.Weeks.Later.2007.1080p.
Библиотека кодирования : x264 core 58 r798M 17e5dac
Настройки программы : cabac=1 / ref=4 / deblock=1:-3:-3 / analyse=0x3:0x113 / me=umh / subme=7 / me-prepass=0 / brdo=1 / mixed_ref=1 / me_range=16 / chroma_me=1 / trellis=0 / 8x8dct=1 / cqm=2 / deadzone=6,4 / chroma_qp_offset=0 / threads=6 / nr=0 / decimate=1 / mbaff=0 / bframes=3 / b_pyramid=1 / b_adapt=1 / b_bias=0 / direct=3 / wpredb=1 / bime=1 / keyint=250 / keyint_min=25 / scenecut=40(pre) / rc=2pass / bitrate=13218 / ratetol=1.0 / rceq='blurCplx^(1-qComp)' / qcomp=1.00 / qpmin=10 / qpmax=51 / qpstep=4 / cplxblur=20.0 / qblur=0.5 / ip_ratio=1.40 / pb_ratio=1.30 / aq=1:0.5:13.0
Язык : English
Default : Да
Forced : Нет

Аудио #1
Идентификатор : 2
Формат : DTS
Формат/Информация : Digital Theater Systems
Режим : 16
Параметр Endianness формата : Big
Идентификатор кодека : A_DTS
Продолжительность : 1 ч. 40 м.
Вид битрейта : Постоянный
Битрейт : 755 Кбит/сек
Каналы : 6 каналов
Расположение каналов : Front: L C R, Side: L R, LFE
Частота : 48,0 КГц
Битовая глубина : 24 бит
Метод сжатия : С потерями
Размер потока : 540 Мбайт (4%)
Заголовок : Русский DTS 768 - дубляж
Язык : Russian
Default : Да
Forced : Нет

Аудио #2
Идентификатор : 3
Формат : AC-3
Формат/Информация : Audio Coding 3
Расширение режима : CM (complete main)
Параметр Endianness формата : Big
Идентификатор кодека : A_AC3
Продолжительность : 1 ч. 40 м.
Вид битрейта : Постоянный
Битрейт : 448 Кбит/сек
Каналы : 6 каналов
Расположение каналов : Front: L C R, Side: L R, LFE
Частота : 48,0 КГц
Битовая глубина : 16 бит
Метод сжатия : С потерями
Размер потока : 321 Мбайт (3%)
Заголовок : Русский АСЗ 448 - дубляж
Язык : Russian
Default : Нет
Forced : Нет

Аудио #3
Идентификатор : 4
Формат : AC-3
Формат/Информация : Audio Coding 3
Расширение режима : CM (complete main)
Параметр Endianness формата : Big
Идентификатор кодека : A_AC3
Продолжительность : 1 ч. 40 м.
Вид битрейта : Постоянный
Битрейт : 448 Кбит/сек
Каналы : 6 каналов
Расположение каналов : Front: L C R, Side: L R, LFE
Частота : 48,0 КГц
Битовая глубина : 16 бит
Метод сжатия : С потерями
Размер потока : 321 Мбайт (3%)
Заголовок : Русский АСЗ 448 - ПД (Гланц, Королёва)
Язык : Russian
Default : Нет
Forced : Нет

Аудио #4
Идентификатор : 5
Формат : AC-3
Формат/Информация : Audio Coding 3
Расширение режима : CM (complete main)
Параметр Endianness формата : Big
Идентификатор кодека : A_AC3
Продолжительность : 1 ч. 40 м.
Вид битрейта : Постоянный
Битрейт : 448 Кбит/сек
Каналы : 6 каналов
Расположение каналов : Front: L C R, Side: L R, LFE
Частота : 48,0 КГц
Битовая глубина : 16 бит
Метод сжатия : С потерями
Размер потока : 321 Мбайт (3%)
Заголовок : Русский АСЗ 448 - АП (Дольский)
Язык : Russian
Default : Нет
Forced : Нет

Аудио #5
Идентификатор : 6
Формат : AC-3
Формат/Информация : Audio Coding 3
Расширение режима : CM (complete main)
Параметр Endianness формата : Big
Идентификатор кодека : A_AC3
Продолжительность : 1 ч. 40 м.
Вид битрейта : Постоянный
Битрейт : 448 Кбит/сек
Каналы : 6 каналов
Расположение каналов : Front: L C R, Side: L R, LFE
Частота : 48,0 КГц
Битовая глубина : 16 бит
Метод сжатия : С потерями
Размер потока : 321 Мбайт (3%)
Заголовок : Русский АСЗ 448 - АП (Горчаков)
Язык : Russian
Default : Нет
Forced : Нет

Аудио #6
Идентификатор : 7
Формат : DTS
Формат/Информация : Digital Theater Systems
Режим : 16
Параметр Endianness формата : Big
Идентификатор кодека : A_DTS
Продолжительность : 1 ч. 40 м.
Вид битрейта : Постоянный
Битрейт : 1509 Кбит/сек
Каналы : 6 каналов
Расположение каналов : Front: L C R, Side: L R, LFE
Частота : 48,0 КГц
Битовая глубина : 24 бит
Метод сжатия : С потерями
Размер потока : 1,06 Гбайт (9%)
Заголовок : Английский DTS 1536 - оригинал
Язык : English
Default : Нет
Forced : Нет

Текст #1
Идентификатор : 8
Формат : UTF-8
Идентификатор кодека : S_TEXT/UTF8
Идентификатор кодека/Информация : UTF-8 Plain Text
Заголовок : Английские
Язык : English
Default : Нет
Forced : Нет

Текст #2
Идентификатор : 9
Формат : UTF-8
Идентификатор кодека : S_TEXT/UTF8
Идентификатор кодека/Информация : UTF-8 Plain Text
Заголовок : Русские
Язык : Russian
Default : Нет
Forced : Нет

Меню
00:00:00.000 : en:1. Safe and Sound
00:05:34.625 : en:2. Attack
00:08:28.007 : en:3. Help Us
00:10:51.776 : en:4. Listen
00:13:22.635 : en:5. New Arrivals
00:15:28.385 : en:6. District One
00:18:04.166 : en:7. Reunited
00:22:12.956 : en:8. What Happened?
00:25:13.720 : en:9. Practical Joke
00:28:26.037 : en:10. Bad Dream
00:32:08.051 : en:11. Home
00:35:04.560 : en:12. Survivor
00:39:43.589 : en:13. Carrier
00:45:54.168 : en:14. Code Red
00:48:50.510 : en:15. Lockdown
00:53:01.386 : en:16. Panic on the Streets
00:55:04.259 : en:17. No Exceptions
00:59:22.642 : en:18. Step Three
01:04:32.785 : en:19. Firebombing
01:07:26.834 : en:20. Valuable Lives
01:13:57.683 : en:21. Death By the Blade
01:17:00.198 : en:22. Gas
01:19:11.955 : en:23. Doyle's Heroism
01:22:37.994 : en:24. Night Vision
01:25:35.296 : en:25. Survival
01:27:46.678 : en:26. Tammy's Lie
01:29:35.870 : en:27. Just Us
01:32:38.386 : en:28 Days Later/End Titles
* Дэнни Бойл отказался от режиссуры в пользу Хуана Карлоса Фреснадильо, оставшись на проекте в качестве исполнительного продюсера. Тем не менее, он снял для фильма несколько сцен.
* Роберт Карлайл отклонил предложение сыграть одну из ролей в «28 дней спустя» (2002).
* Сцены на стадионе «Wembley» были сняты на стадионе «Millennium Stadium» в Кардиффе, т. к. строительные работы на «Wembley» не были завершены на момент съёмок.
* В первой версии сценария детей зовут Дэнни и Тэмзин, но в окончательной версии их изменили на Энди и Тэмми.
* Съемки пустынного Лондона проводились в 4-5 часов утра, чтобы меньше мешать жителям города.


_________________
Проголосуй за трекер Открытый торрент трекер - RUS-MEDIA.ORG

Проголосуй Открытый торрент трекер - RUS-MEDIA.ORG


Вернуться к началу
 Профиль Отправить личное сообщение  
 
   Похожие торренты   Автор   Торрент   Размер 
В этой теме нет новых непрочитанных сообщений. 28 недель спустя / 28 weeks later [Ужасы, фантастика, триллер, 2007] BDRip 1080p, Dub

salma3

2 | 1

14.84 ГБ

В этой теме нет новых непрочитанных сообщений. Шесть недель / Six weeks [Драма, 1982] WEB-DLRip, Mvo

salma3

7 | 3

5.33 ГБ

В этой теме нет новых непрочитанных сообщений. Сигнал / The Signal [ужасы, фантастика, триллер, 2007] BDRip 1080p, Dvo

salma3

69 | 30

10.94 ГБ

В этой теме нет новых непрочитанных сообщений. Мгла / The Mist [Ужасы, фантастика, триллер, 2007] BDRip 1080p, Dub

salma3

0 | 0

14.56 ГБ

В этой теме нет новых непрочитанных сообщений. 9 1/2 Weeks: An Erotic XXX Parody / 9 1/2 Недель (с русским переводом) (David Lord, Adam & Eve) [2014 г., Feature, DVDRip] (Capri Cavalli, Summer Brielle, Eva Karera, Nikki Delano, Sarah Jessie, Courtney Taylor) [rus]

salma3

18 | 6

1.72 ГБ

В этой теме нет новых непрочитанных сообщений. Озеро страха 2 / Lake Placid 2 [ужасы, фантастика, 2007] BDRip 1080p, Mvo

salma3

1 | 16

6.83 ГБ

В этой теме нет новых непрочитанных сообщений. Особь: Пробуждение / Species: The Awakening [ужасы, фантастика, 2007] BDRip 1080p, Dvo

salma3

65 | 127

9.37 ГБ


Начать новую тему Ответить на тему  [ 1 сообщение ] 




Для Мосгорсуда, Роскомнадзора и рекламодателей:: mosgorsud-torrent[собачка]yandex.ru
cron