Торрент файл
скачать торрент магнет ссылка Добавлен: 07 авг 2017, 08:02
Размер: 8.99 ГБ
Сидеров: 358
Личеров: 66
Статус: (salma3)
Автор

СообщениеДобавлено: 07 авг 2017, 08:02 

Не в сети
Супермодератор
Аватара пользователя
Дата регистрации:
15 фев 2012, 16:44
Возраст: 29
Спасибо: 7400 / 2147
Сообщения: 78391
Год выпуска: 2016
Жанр: триллер, драма
Режиссер: Робин Суикорд

В ролях: Брайан Крэнстон, Дженнифер Гарнер, Джейсон О’Мара, Беверли Д`Анджело, Иэн Энтони Дэйл, Пиппа Беннетт-Уорнер, Эллери Спрейберри, Виктория Бруно, Исаак Лейва, Моника Лосон

Описание:
Говард Уэйкфилд, преуспевающий юрист, верный муж, заботливый отец двух дочерей, однажды круто изменил свою жизнь. Это произошло внезапно, когда он подходил к родному роскошному гнездышку в пригороде Нью-Йорка. Погнавшись за наглым енотом, сидевшим у него на пути, Уэйкфилд оказался на чердаке заброшенного гаража, откуда были видны светящиеся окна его гостиной. Накрыт стол, домочадцы ждут отца. «А что будет, если я пропаду? Будут ли плакать любящие крошки? Быстро ли жена найдет мне замену? Помрут ли они с голоду без моих доходов?» — подумал Говард и решил… остаться жить на чердаке.



Страна: США
Продолжительность: 01:49:45
Перевод: Профессиональный (полное дублирование)[iTunes]
Субтитры:английские

Качество: BDRip 1080p
Видео: 1920x816 (2.35:1), 23.976 fps, MPEG-4 AVC ~10.6 Мbps avg
Аудио №1: 48 kHz, AC3 Dolby Digital, 3/2 (L,C,R,l,r) + LFE ch, ~384 kbps | RUS
Аудио №2: 48 kHz, AC3 Dolby Digital, 3/2 (L,C,R,l,r) + LFE ch, ~640 kbps | ENG
Формат субтитров: UTF-8 Plain Text

General
Полное имя : Wakefield.2016.D.BDRip.1О8Оp.mkv
Формат : Matroska
Версия формата : Version 2
Размер файла : 8,99 Гбайт
Продолжительность : 1 ч. 48 м.
Общий поток : 11,8 Мбит/сек
Дата кодирования : UTC 2017-08-06 15:29:28
Программа кодирования : mkvmerge v7.8.0 ('River Man') 32bit built on Apr 3 2015 12:11:22
Библиотека кодирования : libebml v1.3.1 + libmatroska v1.4.2

Видео
Идентификатор : 1
Формат : AVC
Формат/Информация : Advanced Video Codec
Профиль формата : High@L4.1
Параметр CABAC формата : Да
Параметр ReFrames формата : 4 кадра
Идентификатор кодека : V_MPEG4/ISO/AVC
Продолжительность : 1 ч. 48 м.
Битрейт : 10,6 Мбит/сек
Ширина : 1920 пикселей
Высота : 816 пикселей
Соотношение сторон : 2,35:1
Режим частоты кадров : Постоянный
Частота кадров : 23,976 (24000/1001) кадра/сек
Цветовое пространство : YUV
Субдискретизация насыщенности : 4:2:0
Битовая глубина : 8 бит
Тип развёртки : Прогрессивная
Бит/(Пиксели*Кадры) : 0.282
Размер потока : 8,03 Гбайт (89%)
Библиотека кодирования : x264 core 149 r2771+45 509cceb 7mod [8-bit@all X86_64]
Настройки программы : cabac=1 / ref=4 / deblock=1:-3:-3 / analyse=0x3:0x113 / me=umh / subme=10 / psy=1 / fade_compensate=0.00 / psy_rd=0.90:0.10 / mixed_ref=1 / me_range=48 / chroma_me=1 / trellis=2 / 8x8dct=1 / cqm=0 / deadzone=21,11 / fast_pskip=0 / chroma_qp_offset=-2 / threads=12 / lookahead_threads=2 / sliced_threads=0 / nr=0 / decimate=1 / interlaced=0 / bluray_compat=0 / constrained_intra=0 / fgo=0 / bframes=9 / b_pyramid=2 / b_adapt=2 / b_bias=0 / direct=3 / weightb=1 / open_gop=0 / weightp=2 / keyint=250 / keyint_min=23 / scenecut=40 / intra_refresh=0 / rc_lookahead=40 / rc=crf / mbtree=0 / crf=18.0000 / qcomp=0.70 / qpmin=0:0:0 / qpmax=69:69:69 / qpstep=4 / vbv_maxrate=35000 / vbv_bufsize=35000 / crf_max=0.0 / nal_hrd=none / filler=0 / ip_ratio=1.40 / pb_ratio=1.30 / aq=3:1.00 / aq-sensitivity=10.00 / aq-factor=1.00:1.00:1.00 / aq2=0 / aq3=2:[0.50:0.50]:[0.50:0.50]:[0.50:0.50]:[0.50:0.50] / aq3-sensitivity=10.00 / aq3-factor=[1.00:1.00]:[1.00:1.00]:[1.00:1.00] / aq3-boundary=192:64:24
Язык : English
Default : Да
Forced : Нет
Цветовой диапазон : Limited
Коэффициенты матрицы : BT.709

Аудио #1
Идентификатор : 2
Формат : AC-3
Формат/Информация : Audio Coding 3
Параметр Endianness формата : Big
Идентификатор кодека : A_AC3
Продолжительность : 1 ч. 48 м.
Вид битрейта : Постоянный
Битрейт : 384 Кбит/сек
Каналы : 6 каналов
Расположение каналов : Front: L C R, Side: L R, LFE
Частота : 48,0 КГц
Частота кадров : 31,250 кадров/сек (1536 spf)
Битовая глубина : 16 бит
Метод сжатия : С потерями
Размер потока : 299 Мбайт (3%)
Язык : Russian
Default : Да
Forced : Нет

Аудио #2
Идентификатор : 3
Формат : AC-3
Формат/Информация : Audio Coding 3
Параметр Endianness формата : Big
Идентификатор кодека : A_AC3
Продолжительность : 1 ч. 48 м.
Вид битрейта : Постоянный
Битрейт : 640 Кбит/сек
Каналы : 6 каналов
Расположение каналов : Front: L C R, Side: L R, LFE
Частота : 48,0 КГц
Частота кадров : 31,250 кадров/сек (1536 spf)
Битовая глубина : 16 бит
Метод сжатия : С потерями
Размер потока : 498 Мбайт (5%)
Язык : English
Default : Нет
Forced : Нет

Текст
Идентификатор : 4
Формат : UTF-8
Идентификатор кодека : S_TEXT/UTF8
Идентификатор кодека/Информация : UTF-8 Plain Text
Язык : English
Default : Нет
Forced : Нет

Меню
00:00:00.000 : en:00:00:00.000
00:08:03.650 : en:00:08:03.650
00:16:38.664 : en:00:16:38.664
00:25:59.558 : en:00:25:59.558
00:33:40.018 : en:00:33:40.018
00:42:28.755 : en:00:42:28.755
00:52:37.196 : en:00:52:37.196
01:00:31.545 : en:01:00:31.545
01:09:14.192 : en:01:09:14.192
01:17:54.044 : en:01:17:54.044
01:26:08.372 : en:01:26:08.372
01:37:10.158 : en:01:37:10.158


_________________
Проголосуй за трекер Открытый торрент трекер - RUS-MEDIA.ORG

Проголосуй Открытый торрент трекер - RUS-MEDIA.ORG


Вернуться к началу
 Профиль Отправить личное сообщение  
 
   Похожие торренты   Автор   Торрент   Размер 
В этой теме нет новых непрочитанных сообщений. Во всем виноват енот / Wakefield [триллер, драма, 2016] BDRip 720p, Dub [iTunes]

salma3

316 | 70

4.94 ГБ

В этой теме нет новых непрочитанных сообщений. Во всем виноват енот / Уэйкфилд / Wakefield [триллер, драма, 2016] HDRip, Dub [Чистый звук]

salma3

951 | 123

1.46 ГБ

В этой теме нет новых непрочитанных сообщений. Во всем виноват енот / Wаkеfіеld (Робин Суикорд / Robin Swicord) [2016г., триллер, драма, DVDRір] DUB

Alfredovich

405 | 23

1.46 ГБ

В этой теме нет новых непрочитанных сообщений. Во всём виноват Рио / Blame It on Rio [комедия, 1984] BDRip 720p, Mvo

salma3

9 | 4

4.29 ГБ

В этой теме нет новых непрочитанных сообщений. Во всем виноват посыльный / Blame It on the Bellboy [Комедия, 1992] WEB-DL 1080p, Dub

salma3

0 | 1

7.56 ГБ

В этой теме нет новых непрочитанных сообщений. Уна / Una [драма, триллер, 2016] BDRip 1080p, Mvo [iTunes]

salma3

36 | 3

9.15 ГБ

В этой теме нет новых непрочитанных сообщений. Война / Man Down [триллер, драма, 2016] BDRip 1080p, Dub+Sub [iTunes]

salma3

1024 | 624

10.5 ГБ


Начать новую тему Ответить на тему  [ 1 сообщение ] 




Для Мосгорсуда, Роскомнадзора и рекламодателей:: mosgorsud-torrent[собачка]yandex.ru
cron