Торрент файл
скачать торрент магнет ссылка Добавлен: 17 авг 2017, 10:13
Размер: 14.4 ГБ
Сидеров: 0
Личеров: 0
Статус: (salma3)
Автор

СообщениеДобавлено: 17 авг 2017, 10:13 

Не в сети
Супермодератор
Аватара пользователя
Дата регистрации:
15 фев 2012, 16:44
Возраст: 29
Спасибо: 7400 / 2147
Сообщения: 78200
Год выпуска: 2006
Жанр: Криминал, драма, триллер, боевик
Режиссер: Майкл Манн

В ролях: Колин Фаррелл, Джейми Фокс, Гун Ли, Наоми Харрис, Киаран Хайндс, Джастин Теру, Бэрри Шебака Хенли, Луис Тосар, Джон Ортиз, Элизабет Родригез, Доменик Ломбардоззи, Эдди Марсан, Исаак Де Банколе,

Сюжет фильма:
Детективы Джеймс Крокет и Рикардо Таббс полны решимости остановить торговцев наркотиками, наводняющих Майами этим смертельным зельем. Они работают «под прикрытием», внедряясь в мафиозные структуры с целью их уничтожить. Но однажды Джеймс Крокет влюбляется… в девушку мафиозного босса.



Выпущено: США, Германия, Уругвай, Парагвай
Продолжительность: 02:12:11
Перевод: Дублированный

Качество: BDRip 1080p
Видео: 1916x800, 14518 Кбит/сек, 23,976 кадр/сек, 0,395 Бит/[Пиксели*Кадры]
Аудио №1: русский / AC3 / 5.1 / 48 kHz / 448 kbps / |Дублированный|
Аудио №2: английский / AC3 / 5.1 / 48 kHz / 640 kbps /
Субтитры: русские (forced), английские
Навигация по главам(Чаптеры): есть
Автор рипа: Группа:


Format : Matroska
Format version : Version 2
File size : 14.4 GiB
Duration : 2h 12mn
Overall bit rate : 15.6 Mbps
Movie name : Miami Vice.(2006).BDRip.1080p.[denis100].Theatrical Cut
Encoded date : UTC 2017-08-16 15:07:55
Writing application : mkvmerge v5.8.0 ('No Sleep / Pillow') built on Sep 2 2012 15:37:04
Writing library : libebml v1.2.3 + libmatroska v1.3.0

Video
ID : 1
Format : AVC
Format/Info : Advanced Video Codec
Format profile : High@L4.1
Format settings, CABAC : Yes
Format settings, ReFrames : 5 frames
Codec ID : V_MPEG4/ISO/AVC
Duration : 2h 12mn
Bit rate : 14.5 Mbps
Width : 1 916 pixels
Height : 800 pixels
Display aspect ratio : 2.40:1
Frame rate mode : Constant
Frame rate : 23.976 (24000/1001) fps
Color space : YUV
Chroma subsampling : 4:2:0
Bit depth : 8 bits
Scan type : Progressive
Bits/(Pixel*Frame) : 0.395
Stream size : 13.1 GiB (91%)
Title : Miami Vice.(2006).BDRip.1080p.[denis100].Theatrical Cut
Writing library : x264 core 152 r2851 ba24899
Encoding settings : cabac=1 / ref=5 / deblock=1:-3:-3 / analyse=0x3:0x133 / me=umh / subme=11 / psy=1 / psy_rd=1.00:0.15 / mixed_ref=1 / me_range=32 / chroma_me=1 / trellis=2 / 8x8dct=1 / cqm=0 / deadzone=21,11 / fast_pskip=0 / chroma_qp_offset=-3 / threads=6 / lookahead_threads=1 / sliced_threads=0 / nr=0 / decimate=1 / interlaced=0 / bluray_compat=0 / constrained_intra=0 / bframes=10 / b_pyramid=2 / b_adapt=2 / b_bias=0 / direct=3 / weightb=1 / open_gop=0 / weightp=2 / keyint=240 / keyint_min=23 / scenecut=40 / intra_refresh=0 / rc=2pass / mbtree=0 / bitrate=14518 / ratetol=1.0 / qcomp=0.60 / qpmin=0 / qpmax=69 / qpstep=4 / cplxblur=20.0 / qblur=0.5 / ip_ratio=1.40 / pb_ratio=1.30 / aq=1:0.65
Language : English
Default : Yes
Forced : No

Audio #1
ID : 2
Format : AC-3
Format/Info : Audio Coding 3
Mode extension : CM (complete main)
Format settings, Endianness : Big
Codec ID : A_AC3
Duration : 2h 12mn
Bit rate mode : Constant
Bit rate : 448 Kbps
Channel(s) : 6 channels
Channel positions : Front: L C R, Side: L R, LFE
Sampling rate : 48.0 KHz
Frame rate : 31.250 fps (1536 spf)
Compression mode : Lossy
Stream size : 424 MiB (3%)
Language : Russian
Default : Yes
Forced : No

Audio #2
ID : 3
Format : AC-3
Format/Info : Audio Coding 3
Mode extension : CM (complete main)
Format settings, Endianness : Big
Codec ID : A_AC3
Duration : 2h 12mn
Bit rate mode : Constant
Bit rate : 640 Kbps
Channel(s) : 6 channels
Channel positions : Front: L C R, Side: L R, LFE
Sampling rate : 48.0 KHz
Frame rate : 31.250 fps (1536 spf)
Compression mode : Lossy
Stream size : 605 MiB (4%)
Language : English
Default : No
Forced : No

Text #1
ID : 4
Format : UTF-8
Codec ID : S_TEXT/UTF8
Codec ID/Info : UTF-8 Plain Text
Title : Forced
Language : Russian
Default : Yes
Forced : No

Text #2
ID : 5
Format : UTF-8
Codec ID : S_TEXT/UTF8
Codec ID/Info : UTF-8 Plain Text
Language : English
Default : No
Forced : No

Menu
00:00:00.000 : en:Chapter 01
00:05:38.171 : en:Chapter 02
00:13:59.004 : en:Chapter 03
00:19:54.401 : en:Chapter 04
00:25:43.542 : en:Chapter 05
00:35:39.720 : en:Chapter 06
00:45:31.270 : en:Chapter 07
00:52:52.377 : en:Chapter 08
00:58:09.444 : en:Chapter 09
01:02:15.314 : en:Chapter 10
01:11:25.906 : en:Chapter 11
01:18:04.763 : en:Chapter 12
01:23:34.676 : en:Chapter 13
01:27:56.688 : en:Chapter 14
01:37:17.748 : en:Chapter 15
01:41:03.348 : en:Chapter 16
01:46:05.359 : en:Chapter 17
01:50:54.731 : en:Chapter 18
01:58:42.490 : en:Chapter 19
02:04:06.605 : en:Chapter 20


_________________
Проголосуй за трекер Открытый торрент трекер - RUS-MEDIA.ORG

Проголосуй Открытый торрент трекер - RUS-MEDIA.ORG


Вернуться к началу
 Профиль Отправить личное сообщение  
 
   Похожие торренты   Автор   Торрент   Размер 
В этой теме нет новых непрочитанных сообщений. Связь через Майами / Miami Connection [боевик, криминал, 1987] BDRip 720p, Dvo

salma3

11 | 7

7.74 ГБ

В этой теме нет новых непрочитанных сообщений. Суперполицейские из Майами / Miami Supercops [Боевик, Комедия, Криминал, 1985] BDRip-AVC, Avo [Гаврилов]

salma3

45 | 9

2.18 ГБ

В этой теме нет новых непрочитанных сообщений. Суперполицейские из Майами / Miami Supercops [боевик, комедия, криминал, 1985] BDRip 720p, Avo [Гаврилов]

salma3

48 | 20

3.7 ГБ

В этой теме нет новых непрочитанных сообщений. Майами Блюз / Miami Blues [Триллер, драма, мелодрама, 1990] BDRip 720р, Dub

salma3

10 | 2

6.21 ГБ

В этой теме нет новых непрочитанных сообщений. Связь через Майами / Miami Connection [боевик, криминал, 1987] HDRip, Dvo [НТВ+]

salma3

19 | 1

1.46 ГБ

В этой теме нет новых непрочитанных сообщений. Рапсодия Майами / Miami Rhapsody [Комедия, 1995] BDRip 1080p, Mvo

salma3

0 | 0

7.1 ГБ

В этой теме нет новых непрочитанных сообщений. Суперполицейские из Майами / Miami Supercops [боевик, комедия, криминал, 1985] HDRip, Avo [Гаврилов]

salma3

69 | 27

1.45 ГБ


Начать новую тему Ответить на тему  [ 1 сообщение ] 




Для Мосгорсуда, Роскомнадзора и рекламодателей:: mosgorsud-torrent[собачка]yandex.ru
cron