Торрент файл
скачать торрент магнет ссылка Добавлен: 17 авг 2017, 21:21
Размер: 11.31 ГБ
Сидеров: 0
Личеров: 0
Статус: (salma3)
Автор

СообщениеДобавлено: 17 авг 2017, 21:21 

Не в сети
Супермодератор
Аватара пользователя
Дата регистрации:
15 фев 2012, 16:44
Возраст: 29
Спасибо: 7428 / 2147
Сообщения: 80130
Год выхода: 2008
Жанр: мелодрама, комедия
Режиссер: Ховард Дойч

В ролях: Кейт Хадсон, Алек Болдуин, Джейсон Биггс, Дэйн Кук, Лиззи Каплан, Диора Бэрд, Дженни Моллен, Аманда Брукс, Эндрю Колдуэлл, Таран Киллам, Рики Линдхоум, Нейт Торренс, ...

О фильме: Дуэль на пустынной дороге с агрессивным водителем грузовика заканчивается для шестерых молодых людей сломанной машиной. Пытаясь добраться до цивилизации пешком, они оказываются в лесу, где орудует маньяк в кроличьем костюме и его безумная семейка…



Страна: США
Продолжительность: 01:52:28
Перевод: Профессиональный (дублированный) Пифагор
- Авторский (одноголосый, закадровый) Сергеев (Черкасов) Сергей

Кодек: x264
Качество: BDRip 1080p
Видео: 1920x1036, 12000 kbps, 23,976 fps
Аудио #1: AC-3, 6 ch, 448 kbps (Rus) - Dub Пифагор (вставки RussianGuy27)
Аудио #2: AC-3, 6 ch, 448 kbps (Rus) - AVO Сергеев (Черкасов) Сергей (RussianGuy27)
Аудио #3: DTS, 6 ch, 1509 kbps (Eng)
Субтитры: Английские

x264 [info]: frame I:1024 Avg QP:19.36 size:271679
x264 [info]: frame P:31561 Avg QP:21.70 size:100315
x264 [info]: frame B:129219 Avg QP:23.81 size: 51613
x264 [info]: consecutive B-frames: 1.1% 1.2% 7.7% 8.1% 14.0% 60.1% 5.2% 1.3% 0.5% 0.6% 0.3%

Общее
Уникальный идентификатор : 184192305013782034058188449847130960009 (0x8A9225C77C965562BC4A8B2E881FB089)
Полное имя : Девушка моего лучшего друга (My Best Friend's Girl) 2008 BDRip 1080p.mkv
Формат : Matroska
Версия формата : Version 2
Размер файла : 11,3 Гбайт
Продолжительность : 1 ч. 52 м.
Общий поток : 14,4 Мбит/сек
Дата кодирования : UTC 2017-08-16 12:57:58
Программа кодирования : mkvmerge v4.0.0 ('The Stars were mine') сборка от Jun 6 2010 16:18:42
Библиотека кодирования : libebml v1.0.0 + libmatroska v1.0.0

Видео
Идентификатор : 1
Формат : AVC
Формат/Информация : Advanced Video Codec
Профиль формата : High@L4.1
Параметр CABAC формата : Да
Параметр ReFrames формата : 4 кадра
Идентификатор кодека : V_MPEG4/ISO/AVC
Продолжительность : 1 ч. 52 м.
Битрейт : 12,0 Мбит/сек
Ширина : 1920 пикселей
Высота : 1036 пикселей
Соотношение сторон : 1,85:1
Режим частоты кадров : Постоянный
Частота кадров : 23,976 (24000/1001) кадра/сек
Цветовое пространство : YUV
Субдискретизация насыщенности : 4:2:0
Битовая глубина : 8 бит
Тип развёртки : Прогрессивная
Бит/(Пиксели*Кадры) : 0.252
Размер потока : 9,20 Гбайт (81%)
Библиотека кодирования : x264 core 146 r2538 121396c
Настройки программы : cabac=1 / ref=4 / deblock=1:-1:-1 / analyse=0x3:0x133 / me=umh / subme=11 / psy=1 / psy_rd=1.00:0.00 / mixed_ref=1 / me_range=32 / chroma_me=1 / trellis=2 / 8x8dct=1 / cqm=0 / deadzone=21,11 / fast_pskip=0 / chroma_qp_offset=-2 / threads=12 / lookahead_threads=2 / sliced_threads=0 / nr=0 / decimate=0 / interlaced=0 / bluray_compat=0 / constrained_intra=0 / bframes=10 / b_pyramid=2 / b_adapt=2 / b_bias=0 / direct=3 / weightb=1 / open_gop=0 / weightp=2 / keyint=240 / keyint_min=23 / scenecut=40 / intra_refresh=0 / rc=2pass / mbtree=0 / bitrate=12000 / ratetol=1.0 / qcomp=0.60 / qpmin=0 / qpmax=69 / qpstep=4 / cplxblur=20.0 / qblur=0.5 / ip_ratio=1.40 / pb_ratio=1.30 / aq=3:0.90
Язык : English
Default : Нет
Forced : Нет

Аудио #1
Идентификатор : 2
Формат : AC-3
Формат/Информация : Audio Coding 3
Расширение режима : CM (complete main)
Параметр Endianness формата : Big
Идентификатор кодека : A_AC3
Продолжительность : 1 ч. 52 м.
Вид битрейта : Постоянный
Битрейт : 448 Кбит/сек
Каналы : 6 каналов
Расположение каналов : Front: L C R, Side: L R, LFE
Частота : 48,0 КГц
Частота кадров : 31,250 кадров/сек (1536 spf)
Метод сжатия : С потерями
Размер потока : 360 Мбайт (3%)
Заголовок : Dub Пифагор (вставки RussianGuy27)
Язык : Russian
Default : Нет
Forced : Нет

Аудио #2
Идентификатор : 3
Формат : AC-3
Формат/Информация : Audio Coding 3
Расширение режима : CM (complete main)
Параметр Endianness формата : Big
Идентификатор кодека : A_AC3
Продолжительность : 1 ч. 52 м.
Вид битрейта : Постоянный
Битрейт : 448 Кбит/сек
Каналы : 6 каналов
Расположение каналов : Front: L C R, Side: L R, LFE
Частота : 48,0 КГц
Частота кадров : 31,250 кадров/сек (1536 spf)
Метод сжатия : С потерями
Размер потока : 360 Мбайт (3%)
Заголовок : VO Сергеев (Черкасов) Сергей (RussianGuy27)
Язык : Russian
Default : Нет
Forced : Нет

Аудио #3
Идентификатор : 4
Формат : DTS
Формат/Информация : Digital Theater Systems
Режим : 16
Параметр Endianness формата : Big
Идентификатор кодека : A_DTS
Продолжительность : 1 ч. 52 м.
Вид битрейта : Постоянный
Битрейт : 1509 Кбит/сек
Каналы : 6 каналов
Расположение каналов : Front: L C R, Side: L R, LFE
Частота : 48,0 КГц
Частота кадров : 93,750 кадра/сек (512 spf)
Битовая глубина : 24 бит
Метод сжатия : С потерями
Размер потока : 1,19 Гбайт (10%)
Язык : English
Default : Нет
Forced : Нет

Текст
Идентификатор : 5
Формат : UTF-8
Идентификатор кодека : S_TEXT/UTF8
Идентификатор кодека/Информация : UTF-8 Plain Text
Язык : English
Default : Нет
Forced : Нет


_________________
Проголосуй за трекер Открытый торрент трекер - RUS-MEDIA.ORG

Проголосуй Открытый торрент трекер - RUS-MEDIA.ORG


Вернуться к началу
 Профиль Отправить личное сообщение  
 
   Похожие торренты   Автор   Торрент   Размер 
В этой теме нет новых непрочитанных сообщений. Девушка моего лучшего друга / My Best Friend's Girl [мелодрама, комедия, 2008] BDRip 720p, Dub [Unrated]

salma3

0 | 1

5.86 ГБ

В этой теме нет новых непрочитанных сообщений. Девушка моего лучшего друга / My Best Friend's Girl [Комедия, мелодрама, 2008] Blu-Ray 1080p, Dub [Unrated version]

salma3

25 | 30

41.96 ГБ

В этой теме нет новых непрочитанных сообщений. Женщина моего друга / La femme de mon pote [мелодрама, комедия, 1983] BDRip, Mvo

salma3

12 | 12

1.45 ГБ

В этой теме нет новых непрочитанных сообщений. Женщина моего друга / La femme de mon pote [мелодрама, комедия, 1983] BDRemux 1080p, Mvo

salma3

0 | 0

24.83 ГБ

В этой теме нет новых непрочитанных сообщений. Jewels Jade - Горячая мама моего друга 24 / My Friend's Hot Mom 24 (2011) DVDRip-AVC

salma3

9 | 0

422.68 МБ

В этой теме нет новых непрочитанных сообщений. My Friend's Hot Mom 61 / Соблазнительная Мама Моего Друга 61 (Naughty America) [2018 г., All Sex,Mature, MILF, Prebooks, WEB-DL] (Split Scenes)

salma3

0 | 0

1.61 ГБ

В этой теме нет новых непрочитанных сообщений. Суши girl / The Ramen Girl [Комедия, мелодрама, драма, 2008] BDRip 1080p, Dvo

salma3

0 | 0

9.83 ГБ


Начать новую тему Ответить на тему  [ 1 сообщение ] 




Для Мосгорсуда, Роскомнадзора и рекламодателей:: mosgorsud-torrent[собачка]yandex.ru
cron