Торрент файл
скачать торрент магнет ссылка Добавлен: 23 авг 2017, 20:55
Размер: 9.96 ГБ
Сидеров: 6
Личеров: 1
Статус: (salma3)
Автор

СообщениеДобавлено: 23 авг 2017, 20:55 

Не в сети
Супермодератор
Аватара пользователя
Дата регистрации:
15 фев 2012, 16:44
Возраст: 29
Спасибо: 7434 / 2147
Сообщения: 80216
Год выхода: 2004
Жанр: драма, комедия
Режиссер: Брайан Дэннели

В ролях: Джена Мэлоун, Мэнди Мур, Маколей Калкин, Патрик Фьюджит, Хизер Матараццо, Ева Амурри, Чэд Фауст, Элизабет Таи, Мартин Донован, Мэри-Луиз Паркер, ...

О фильме:
Настоящий шок испытывает прилежная ученица баптистской школы Мэри, когда узнает, что беременна от своего бойфренда, который, к тому же, недавно объявил ей, что он — гей.
Самая популярная девушка в школе, Хилари Фэй, окружившая заботой прикованного к инвалидному креслу своего братца, Роланда, узнав о грехопадении подруги, объявляет ей бойкот… Сможет ли Мэри разрешить все эти проблемы и воскликнуть в финале: «Спасена!»?…



Страна: США, Канада
Продолжительность: 01:32:28
Перевод: Профессиональный (многоголосый, закадровый) R5 от «Парадиз»

Кодек: x264
Качество: BDRip 1080p
Видео: 1920x1040, 13700 kbps, 23,976 fps
Аудио #1: AC-3, 2 ch, 192 kbps (Rus) - MVO R5 «Парадиз»
Аудио #2: DTS, 6 ch, 1509 kbps (Eng)
Субтитры: Русские, Английские

Общее
Уникальный идентификатор : 213518830806831741589711513801447729825 (0xA0A23B226EA15B388BAC0A4571486AA1)
Полное имя : Спасенная (Saved!) 2004 BDRip 1080p.mkv
Формат : Matroska
Версия формата : Version 2
Размер файла : 9,96 Гбайт
Продолжительность : 1 ч. 32 м.
Общий поток : 15,4 Мбит/сек
Дата кодирования : UTC 2017-08-18 08:05:04
Программа кодирования : mkvmerge v4.0.0 ('The Stars were mine') сборка от Jun 6 2010 16:18:42
Библиотека кодирования : libebml v1.0.0 + libmatroska v1.0.0

Видео
Идентификатор : 1
Формат : AVC
Формат/Информация : Advanced Video Codec
Профиль формата : High@L4.1
Параметр CABAC формата : Да
Параметр ReFrames формата : 4 кадра
Идентификатор кодека : V_MPEG4/ISO/AVC
Продолжительность : 1 ч. 32 м.
Битрейт : 13,7 Мбит/сек
Ширина : 1920 пикселей
Высота : 1040 пикселей
Соотношение сторон : 1,85:1
Режим частоты кадров : Постоянный
Частота кадров : 23,976 (24000/1001) кадра/сек
Цветовое пространство : YUV
Субдискретизация насыщенности : 4:2:0
Битовая глубина : 8 бит
Тип развёртки : Прогрессивная
Бит/(Пиксели*Кадры) : 0.286
Размер потока : 8,66 Гбайт (87%)
Библиотека кодирования : x264 core 148 r2705 3f5ed56
Настройки программы : cabac=1 / ref=4 / deblock=1:-3:-3 / analyse=0x3:0x113 / me=umh / subme=8 / psy=1 / psy_rd=1.15:0.00 / mixed_ref=1 / me_range=32 / chroma_me=1 / trellis=1 / 8x8dct=1 / cqm=0 / deadzone=21,11 / fast_pskip=1 / chroma_qp_offset=-2 / threads=24 / lookahead_threads=4 / sliced_threads=0 / nr=0 / decimate=1 / interlaced=0 / bluray_compat=0 / constrained_intra=0 / bframes=3 / b_pyramid=2 / b_adapt=2 / b_bias=0 / direct=3 / weightb=1 / open_gop=0 / weightp=2 / keyint=240 / keyint_min=24 / scenecut=40 / intra_refresh=0 / rc_lookahead=50 / rc=2pass / mbtree=1 / bitrate=13695 / ratetol=1.0 / qcomp=0.60 / qpmin=0 / qpmax=69 / qpstep=4 / cplxblur=20.0 / qblur=0.5 / ip_ratio=1.40 / aq=3:0.80
Язык : English
Default : Нет
Forced : Нет

Аудио #1
Идентификатор : 2
Формат : AC-3
Формат/Информация : Audio Coding 3
Расширение режима : CM (complete main)
Параметр Endianness формата : Big
Идентификатор кодека : A_AC3
Продолжительность : 1 ч. 32 м.
Вид битрейта : Постоянный
Битрейт : 192 Кбит/сек
Каналы : 2 канала
Расположение каналов : Front: L R
Частота : 48,0 КГц
Частота кадров : 31,250 кадров/сек (1536 spf)
Метод сжатия : С потерями
Размер потока : 127 Мбайт (1%)
Заголовок : MVO R5 «Парадиз»
Язык : Russian
Default : Нет
Forced : Нет

Аудио #2
Идентификатор : 3
Формат : DTS
Формат/Информация : Digital Theater Systems
Режим : 16
Параметр Endianness формата : Big
Идентификатор кодека : A_DTS
Продолжительность : 1 ч. 32 м.
Вид битрейта : Постоянный
Битрейт : 1509 Кбит/сек
Каналы : 6 каналов
Расположение каналов : Front: L C R, Side: L R, LFE
Частота : 48,0 КГц
Частота кадров : 93,750 кадра/сек (512 spf)
Битовая глубина : 24 бит
Метод сжатия : С потерями
Размер потока : 1000 Мбайт (10%)
Язык : English
Default : Нет
Forced : Нет

Текст #1
Идентификатор : 4
Формат : UTF-8
Идентификатор кодека : S_TEXT/UTF8
Идентификатор кодека/Информация : UTF-8 Plain Text
Язык : Russian
Default : Нет
Forced : Нет

Текст #2
Идентификатор : 5
Формат : UTF-8
Идентификатор кодека : S_TEXT/UTF8
Идентификатор кодека/Информация : UTF-8 Plain Text
Язык : English
Default : Нет
Forced : Нет

Текст #3
Идентификатор : 6
Формат : UTF-8
Идентификатор кодека : S_TEXT/UTF8
Идентификатор кодека/Информация : UTF-8 Plain Text
Заголовок : SDH
Язык : English
Default : Нет
Forced : Нет


_________________
Проголосуй за трекер Открытый торрент трекер - RUS-MEDIA.ORG

Проголосуй Открытый торрент трекер - RUS-MEDIA.ORG


Вернуться к началу
 Профиль Отправить личное сообщение  
 
   Похожие торренты   Автор   Торрент   Размер 
В этой теме нет новых непрочитанных сообщений. Терминал / The Terminal [драма, комедия, 2004] BDRip 1080p, Dub

salma3

0 | 0

11.54 ГБ

В этой теме нет новых непрочитанных сообщений. Терминал / The Terminal [драма, комедия, 2004] BDRip-HEVC 1080p, Dub

salma3

23 | 21

5.19 ГБ

В этой теме нет новых непрочитанных сообщений. После заката / After The Sunset [Боевик, драма, комедия, 2004] BDRip 1080p. Dub

salma3

0 | 0

11.64 ГБ

В этой теме нет новых непрочитанных сообщений. Испанский английский / Spanglish (Джеймс Л. Брукс) [2004, драма, мелодрама, комедия, BDRip 1080p] Dub+Svo+Avo+Sub

salma3

0 | 0

15.43 ГБ

В этой теме нет новых непрочитанных сообщений. Широко шагая / Walking Tall [боевик, триллер, драма, комедия, 2004] BDRip 1080p, Dub

salma3

50 | 24

4.37 ГБ

В этой теме нет новых непрочитанных сообщений. [BrattySis.com] Rosalyn Sphinx - Saved By The Pussy (27.07.2018) [All Sex, Blowjobs, POV, 1080p]

salma3

0 | 0

1.5 ГБ

В этой теме нет новых непрочитанных сообщений. [Screwbox.com] Alexis Adams ( Saved By A Screw)[2017 г., Gonzo Hardcore , 1080p]

salma3

11 | 4

1.43 ГБ


Начать новую тему Ответить на тему  [ 1 сообщение ] 




Для Мосгорсуда, Роскомнадзора и рекламодателей:: mosgorsud-torrent[собачка]yandex.ru
cron