Торрент файл
скачать торрент магнет ссылка Добавлен: 02 сен 2017, 21:19
Размер: 8.8 ГБ
Сидеров: 111
Личеров: 26
Статус: (salma3)
Автор

СообщениеДобавлено: 02 сен 2017, 21:19 

Не в сети
Супермодератор
Аватара пользователя
Дата регистрации:
15 фев 2012, 16:44
Возраст: 29
Спасибо: 7401 / 2147
Сообщения: 78470
Год выхода: 2004
Жанр: триллер, драма, мелодрама
Режиссер: Пол МакГиган

В ролях: Джош Хартнетт, Роуз Бирн, Мэттью Лиллард, Дайан Крюгер, Кристофер Казинс, Джессика Паре, Власта Врана, Эми Собол, Тед Уиттэлл, Изабель Дос Сантос

О фильме:
Накануне важной деловой поездки молодой преуспевающий финансист Мэтью замечает в ресторане свою бывшую возлюбленную Лизу, которая таинственным образом исчезла два года назад и страстью к которой он все еще одержим. Забыв обо всем, Мэтью ступает на путь обмана и подозрений, чтобы выследить ее. Пытаясь решить головоломку с помощью загадочных улик, он случайно знакомится с другой девушкой — ее тоже зовут Лиза и, возможно, ей известна тайна странного исчезновения. Мэтью не предполагает, что любовная одержимость уже сделала его жертвой виртуозной интриги…



Страна: США
Продолжительность: 01:54:55
Перевод: Профессиональный (дублированный) R5 + Профессиональный (двухголосый, закадровый) Tycoon Studio + Профессиональный (двухголосый, закадровый) О.Зверева и А.Котов

Файл
Качество: WEB-DL 1080p
Формат: Matroska
Видео: 1920x1080 at 23.976 fps, MPEG4-AVC, ~10000 kbps avg
Аудио#1: Russian: 48 kHz, AC3, 3/2 (L,C,R,l,r) + LFE ch, ~384 kbps avg |Дубляж, R5|
Аудио#2: Russian: 48 kHz, AC3, 2/0 (L,R) ch, ~192 kbps avg |Двухголосый закадровый, Tycoon Studio|
Аудио#3: Russian: 48 kHz, AC3, 2/0 (L,R) ch, ~192 kbps avg |Двухголосый закадровый, О.Зверева и А.Котов|
Аудио#4: English: 48 kHz, AC3, 3/2 (L,C,R,l,r) + LFE ch, ~448 kbps avg
Аудио#5: English: 48 kHz, AC3, 2/0 (L,R) ch, ~192 kbps avg |Commentary|
Субтитры: Russian, English

***Сохранены и подписаны оригинальные главы.
***Релиз - lumez.

В финальной сцене фильма играет песня группы Coldplay — «The Scientist».
На роль Мэттью уже был утвержден Пол Уокер. Но он вскоре покинул проект из-за возникнувших осложнений на съемках фильма «Двойной форсаж» (2003). Мэттью мог так же сыграть Фредди Принц мл..
Гораздо раньше планировалось, что главной звездой фильма станет Брендан Фрейзер, а кресло режиссера займет Джоэл Шумахер.
Большая часть съемок прошла в Монреале.
Перевод оригинального названия — «Уикер-парк».
Автомобиль главного героя — Ford Mustang 1968 года.
[*]Фильм является ремейком французского фильма «Квартира» 1996 года.
Общее
Уникальный идентификатор : 175760279546355730296267153334859913812 (0x843A32D398EDEA01B340DFDA1BC2DA54)
Полное имя : Wicker.Park.2004.1080p.WEB-DL.H.264.mkv
Формат : Matroska
Версия формата : Version 4 / Version 2
Размер файла : 8,80 Гбайт
Продолжительность : 1 ч. 54 м.
Общий поток : 11,0 Мбит/сек
Дата кодирования : UTC 2017-09-02 12:24:51
Программа кодирования : mkvmerge v7.4.0 ('Circles') 64bit built on Dec 12 2014 12:19:56
Библиотека кодирования : libebml v1.3.0 + libmatroska v1.4.1
Attachment : Yes

Видео
Идентификатор : 1
Формат : AVC
Формат/Информация : Advanced Video Codec
Профиль формата : High@L4.0
Параметр CABAC формата : Да
Параметр ReFrames формата : 4 кадра
Идентификатор кодека : V_MPEG4/ISO/AVC
Продолжительность : 1 ч. 54 м.
Вид битрейта : Постоянный
Битрейт : 9335 Кбит/сек
Номинальный битрейт : 10000 Кбит/сек
Ширина : 1920 пикселей
Высота : 1080 пикселей
Соотношение сторон : 16:9
Режим частоты кадров : Постоянный
Частота кадров : 23,976 кадра/сек
Стандарт вещания : PAL
Цветовое пространство : YUV
Субдискретизация насыщенности : 4:2:0
Битовая глубина : 8 бит
Тип развёртки : Прогрессивная
Бит/(Пиксели*Кадры) : 0.188
Размер потока : 7,49 Гбайт (85%)
Язык : English
Default : Да
Forced : Нет
Основные цвета : BT.709
Характеристики трансфера : BT.709
Коэффициенты матрицы : BT.709

Аудио #1
Идентификатор : 2
Формат : AC-3
Формат/Информация : Audio Coding 3
Расширение режима : CM (complete main)
Параметр Endianness формата : Big
Идентификатор кодека : A_AC3
Продолжительность : 1 ч. 54 м.
Вид битрейта : Постоянный
Битрейт : 384 Кбит/сек
Каналы : 6 каналов
Расположение каналов : Front: L C R, Side: L R, LFE
Частота : 48,0 КГц
Битовая глубина : 16 бит
Метод сжатия : С потерями
Размер потока : 316 Мбайт (4%)
Заголовок : дубляж
Язык : Russian
Default : Да
Forced : Нет

Аудио #2
Идентификатор : 3
Формат : AC-3
Формат/Информация : Audio Coding 3
Расширение режима : CM (complete main)
Параметр Endianness формата : Big
Идентификатор кодека : A_AC3
Продолжительность : 1 ч. 54 м.
Вид битрейта : Постоянный
Битрейт : 192 Кбит/сек
Каналы : 2 канала
Расположение каналов : Front: L R
Частота : 48,0 КГц
Битовая глубина : 16 бит
Метод сжатия : С потерями
Размер потока : 158 Мбайт (2%)
Заголовок : tycoon
Язык : Russian
Default : Нет
Forced : Нет

Аудио #3
Идентификатор : 4
Формат : AC-3
Формат/Информация : Audio Coding 3
Расширение режима : CM (complete main)
Параметр Endianness формата : Big
Идентификатор кодека : A_AC3
Продолжительность : 1 ч. 54 м.
Вид битрейта : Постоянный
Битрейт : 192 Кбит/сек
Каналы : 2 канала
Расположение каналов : Front: L R
Частота : 48,0 КГц
Битовая глубина : 16 бит
Метод сжатия : С потерями
Размер потока : 158 Мбайт (2%)
Заголовок : ольга зверева и александр котов
Язык : Russian
Default : Нет
Forced : Нет

Аудио #4
Идентификатор : 5
Формат : AC-3
Формат/Информация : Audio Coding 3
Расширение режима : CM (complete main)
Параметр Endianness формата : Big
Идентификатор кодека : A_AC3
Продолжительность : 1 ч. 54 м.
Вид битрейта : Постоянный
Битрейт : 448 Кбит/сек
Каналы : 6 каналов
Расположение каналов : Front: L C R, Side: L R, LFE
Частота : 48,0 КГц
Битовая глубина : 16 бит
Метод сжатия : С потерями
Размер потока : 368 Мбайт (4%)
Язык : English
Default : Нет
Forced : Нет

Аудио #5
Идентификатор : 6
Формат : AC-3
Формат/Информация : Audio Coding 3
Расширение режима : CM (complete main)
Параметр Endianness формата : Big
Идентификатор кодека : A_AC3
Продолжительность : 1 ч. 54 м.
Вид битрейта : Постоянный
Битрейт : 192 Кбит/сек
Каналы : 2 канала
Расположение каналов : Front: L R
Частота : 48,0 КГц
Битовая глубина : 16 бит
Метод сжатия : С потерями
Размер потока : 158 Мбайт (2%)
Заголовок : commentary with paul mcguigan & josh hartnett
Язык : English
Default : Нет
Forced : Нет

Текст #1
Идентификатор : 7
Формат : UTF-8
Идентификатор кодека : S_TEXT/UTF8
Идентификатор кодека/Информация : UTF-8 Plain Text
Язык : Russian
Default : Нет
Forced : Нет

Текст #2
Идентификатор : 8
Формат : UTF-8
Идентификатор кодека : S_TEXT/UTF8
Идентификатор кодека/Информация : UTF-8 Plain Text
Язык : English
Default : Нет
Forced : Нет

Меню
00:00:05.943 : en:Main Title/Up-and-Comer
00:05:48.276 : en:"Lisa!"
00:07:53.395 : en:The Girl on Camera
00:11:40.318 : en:Shanghai Via the Drake
00:15:44.079 : en:8 1/2, Like Fellini
00:20:52.651 : en:Ordinary Beautiful
00:26:03.819 : en:A Belief in Destiny
00:29:19.067 : en:Key to an Empty Place
00:33:03.396 : en:"Fix It!"
00:38:28.939 : en:The Wrong Lisa
00:45:02.621 : en:Nice Guy Staying Over
00:48:45.035 : en:The Last Rendezvous
00:52:33.624 : en:The Morning After
00:57:19.030 : en:A Neighborly Gesture
01:02:01.882 : en:Hot and/or Creepy
01:06:43.163 : en:It Started with a Defect
01:13:27.113 : en:A Little Friendly Support
01:16:36.044 : en:Stage Fright
01:21:12.068 : en:A Girlfriend in Need
01:25:54.993 : en:Phone Tag
01:34:15.826 : en:If the Shoe Won't Fit...
01:36:20.744 : en:At Last, They Meet
01:45:00.429 : en:Airport Lost and Found
01:50:18.257 : en:End Credits


_________________
Проголосуй за трекер Открытый торрент трекер - RUS-MEDIA.ORG

Проголосуй Открытый торрент трекер - RUS-MEDIA.ORG


Вернуться к началу
 Профиль Отправить личное сообщение  
 
   Похожие торренты   Автор   Торрент   Размер 
В этой теме нет новых непрочитанных сообщений. Одержимость / Wicker Park [триллер, драма, мелодрама, 2004] WEB-DLRip 1080p, Dub

salma3

0 | 2

7.83 ГБ

В этой теме нет новых непрочитанных сообщений. Одержимость / Wicker Park [триллер, драма, детектив, 2004] HDTVRip-AVC, Dub

salma3

36 | 20

2.18 ГБ

В этой теме нет новых непрочитанных сообщений. Одержимость / Wicker Park [триллер, драма, детектив, WED-DLRip, Dub

salma3

6 | 3

1.45 ГБ

В этой теме нет новых непрочитанных сообщений. Великолепная одержимость / Magnificent Obsession [драма, мелодрама, 1954] BDRip 1080p, Avo

salma3

11 | 27

8.89 ГБ

В этой теме нет новых непрочитанных сообщений. Плетеный человек / The Wicker Man [ужасы, триллер, драма, 1973] DVD5, Mvo

salma3

0 | 0

4.14 ГБ

В этой теме нет новых непрочитанных сообщений. Плетеный человек / The Wicker Man [ужасы, триллер, драма, 1973] BDRip-AVC, Dvo

salma3

7 | 2

2.86 ГБ

В этой теме нет новых непрочитанных сообщений. Одержимость / Fitoor [драма, мелодрама, 2016] DVDRip, Dvo

salma3

29 | 10

1.55 ГБ


Начать новую тему Ответить на тему  [ 1 сообщение ] 




Для Мосгорсуда, Роскомнадзора и рекламодателей:: mosgorsud-torrent[собачка]yandex.ru
cron