Торрент файл
скачать торрент магнет ссылка Добавлен: 10 сен 2017, 11:15
Размер: 4.3 ГБ
Сидеров: 11
Личеров: 3
Статус: (salma3)
Автор

СообщениеДобавлено: 10 сен 2017, 11:15 

Не в сети
Супермодератор
Аватара пользователя
Дата регистрации:
15 фев 2012, 16:44
Возраст: 29
Спасибо: 7401 / 2147
Сообщения: 78470
Год выхода: 1970
Жанр: Триллер, драма, криминал
Режиссер: Серджо Соллима

В ролях: Чарльз Бронсон, Джилл Айрленд, Мишель Константен, Телли Савалас, Умберто Орсини, Рэй Саундерс, Бенжамин Лев, Питер Дэйн, Джордж Савалас, Берил Сальваторе

О фильме:
После ряда кровавых преступлений и непонятных подстав профессиональный "стрелок" Джефф начинает подозревать в злом умысле свою прекрасную подружку. Она прячется от Джеффа в Новом Орлеане, но тот берет ее след, который… выводит его на "крестного отца" мощной криминальной группировки. Босс однозначно дает Джеффу понять, что хочет видеть его в рядах своей организации, а когда тот отказывается - объявляет ему войну. Но и Джефф не собирается поднимать лапы кверху, и теперь в Городе Насилия каждый шаг похож на выстрел пули. а любовь подобна заряженному пистолету…



Выпущено: Франция, Италия, Universal Pictures France, Unidis-Fono Roma
Продолжительность: 01:44:42
Перевод: Профессиональный, [многоголосый] [DVD Magic]

Файл
Качество: BDRip 720p
Видео: ~5377 Кбит/с, 1280x544, 25,000 кадр/сек
Аудио №1: Russian, AC3, 2 ch, 192 Кбит/с
Аудио №2: English, AC3, 2 ch, 192 Кбит/с
Субтитры: English, Italian (PGS)

General
Unique ID : 196182482884798289124897768658773927569 (0x93975F3097955110501D42B191C2E691)
Complete name : D:Город насилия.(1970).BLU-RAY.720p.[-=DoMiNo=-].mkv
Format : Matroska
Format version : Version 4 / Version 2
File size : 4.30 GiB
Duration : 1 h 44 min
Overall bit rate : 5 878 kb/s
Movie name : Город насилия
Deion : После ряда кровавых преступлений и непонятных подстав профессиональный «стрелок» Джефф начинает подозревать в злом умысле свою прекрасную подружку. Она прячется от Джеффа в Новом Орлеане, но тот берет ее след, который... выводит его на «крестного отца» мощной криминальной группировки. / Босс однозначно дает Джеффу понять, что хочет видеть его в рядах своей организации, а когда тот отказывается - объявляет ему войну. Но и Джефф не собирается поднимать лапы кверху, и теперь в Городе Насилия каждый шаг похож на выстрел пули. а любовь подобна заряженному пистолету...
Writing application : XviD4PSP 7.0.402 DAILY
Writing library : Lavf57.71.100
ErrorDetectionType : Per level 1
Attachments : poster.jpg
ACTORS : Чарльз Бронсон, Джилл Айрленд, Мишель Константен, Телли Савалас, Умберто Орсини, Рэй Саундерс, Бенжамин Лев, Питер Дэйн, Джордж Савалас, Берил Сальваторе, Роберт Спэффорд, Гоффредо Унгер
COMPOSER : Эннио Морриконе
COUNTRY : Италия, Франция
DATE : 1970
DIRECTOR : Серджо Соллима
ENCODING_INFO : BluRay > MKV 720p / H264 > X264 CRF 18.5 Произвольный / DTS-HD MA > AC3 CBR 192kbps / DTS-HD MA > AC3 CBR 192kbps
GENRE : триллер, криминал
HD_VIDEO : 1
IMDB_RATING : 6.50
ITUNEXTC : mpaa|R|400|
Language : und
MEDIA_TYPE : 9
ORIGINAL_ACTORS : Charles Bronson, Jill Ireland, Michel Constantin, Telly Savalas, Umberto Orsini, Ray Saunders (в титрах: Ray Sanders), Benjamin Lev, Peter Dane, George Savalas, Beryl Salvatore, Robert Spafford, Goffredo Unger
ORIGINAL_TITLE : Città violenta
PRODUCER : Арриго Коломбо, Джорджо Папи
RATING : 6.429
WRITER : Джанфранко Галлигарич, Сауро Скаволини, Серджо Соллима, Лина Вертмюллер, Массимо Де Рита, Ардуино Майури

Video
ID : 1
Format : AVC
Format/Info : Advanced Video Codec
Format profile : High@L4.1
Format settings, CABAC : Yes
Format settings, RefFrames : 9 frames
Codec ID : V_MPEG4/ISO/AVC
Duration : 1 h 44 min
Bit rate : 5 377 kb/s
Width : 1 280 pixels
Height : 544 pixels
Display aspect ratio : 2.35:1
Frame rate mode : Constant
Frame rate : 25.000 FPS
Color space : YUV
Chroma subsampling : 4:2:0
Bit depth : 8 bits
Scan type : Progressive
Bits/(Pixel*Frame) : 0.309
Stream size : 3.93 GiB (91%)
Title : BLU_RAY_720p_RIP_BY_-=DoMiNo=-
Writing library : x264 core 152 r2851M ba24899
Encoding settings : cabac=1 / ref=9 / deblock=1:-3:-3 / analyse=0x3:0x133 / me=umh / subme=11 / psy=1 / psy_rd=1.05:0.05 / mixed_ref=1 / me_range=32 / chroma_me=1 / trellis=2 / 8x8dct=1 / cqm=0 / deadzone=21,11 / fast_pskip=0 / chroma_qp_offset=-3 / threads=6 / lookahead_threads=1 / sliced_threads=0 / nr=0 / decimate=1 / interlaced=0 / bluray_compat=0 / constrained_intra=0 / bframes=12 / b_pyramid=2 / b_adapt=2 / b_bias=0 / direct=3 / weightb=1 / open_gop=0 / weightp=2 / keyint=250 / keyint_min=25 / scenecut=40 / intra_refresh=0 / rc=crf / mbtree=0 / crf=18.5 / qcomp=0.60 / qpmin=0 / qpmax=69 / qpstep=4 / ip_ratio=1.40 / pb_ratio=1.30 / aq=1:1.00
Default : Yes
Forced : No
Color range : Limited
Color primaries : BT.709
Transfer characteristics : BT.709
Matrix coefficients : BT.709

Audio #1
ID : 2
Format : AC-3
Format/Info : Audio Coding 3
Format settings, Endianness : Big
Codec ID : A_AC3
Duration : 1 h 44 min
Bit rate mode : Constant
Bit rate : 192 kb/s
Channel(s) : 2 channels
Channel positions : Front: L R
Sampling rate : 48.0 kHz
Frame rate : 31.250 FPS (1536 SPF)
Bit depth : 16 bits
Compression mode : Lossy
Stream size : 144 MiB (3%)
Title : MVO_P_[DVD Magic]
Language : Russian
Service kind : Complete Main
Default : Yes
Forced : No

Audio #2
ID : 3
Format : AC-3
Format/Info : Audio Coding 3
Format settings, Endianness : Big
Codec ID : A_AC3
Duration : 1 h 44 min
Bit rate mode : Constant
Bit rate : 192 kb/s
Channel(s) : 2 channels
Channel positions : Front: L R
Sampling rate : 48.0 kHz
Frame rate : 31.250 FPS (1536 SPF)
Bit depth : 16 bits
Compression mode : Lossy
Stream size : 144 MiB (3%)
Language : English
Service kind : Complete Main
Default : No
Forced : No

Text #1
ID : 4
Format : PGS
Codec ID : S_HDMV/PGS
Codec ID/Info : Picture based subtitle format used on BDs/HD-DVDs
Duration : 1 h 42 min
Language : English
Default : Yes
Forced : No

Text #2
ID : 5
Format : PGS
Codec ID : S_HDMV/PGS
Codec ID/Info : Picture based subtitle format used on BDs/HD-DVDs
Duration : 1 h 18 min
Language : English
Default : No
Forced : No

Text #3
ID : 6
Format : PGS
Codec ID : S_HDMV/PGS
Codec ID/Info : Picture based subtitle format used on BDs/HD-DVDs
Duration : 1 h 42 min
Language : Italian
Default : No
Forced : No

Menu
00:00:00.000 : :Глава 1
00:03:22.520 : :Глава 2
00:12:00.000 : :Глава 3
00:17:53.160 : :Глава 4
00:22:30.520 : :Глава 5
00:28:16.240 : :Глава 6
00:42:48.360 : :Глава 7
00:48:41.280 : :Глава 8
00:56:02.520 : :Глава 9
01:03:43.880 : :Глава 10
01:06:59.200 : :Глава 11
01:15:58.400 : :Глава 12
01:22:11.560 : :Глава 13
01:29:44.920 : :Глава 14
01:33:55.840 : :Глава 15
01:38:28.760 : :Глава 16


_________________
Проголосуй за трекер Открытый торрент трекер - RUS-MEDIA.ORG

Проголосуй Открытый торрент трекер - RUS-MEDIA.ORG


Вернуться к началу
 Профиль Отправить личное сообщение  
 
   Похожие торренты   Автор   Торрент   Размер 
В этой теме нет новых непрочитанных сообщений. Город насилия / Violent City / Città violenta [Триллер, драма, криминал, 1970] BDRip, Mvo

salma3

43 | 3

1.46 ГБ

В этой теме нет новых непрочитанных сообщений. Город-бомба / Bomb City [драма, криминал, 2017] BDRip 720p, Avo

salma3

0 | 0

3.31 ГБ

В этой теме нет новых непрочитанных сообщений. Безумный город / Mad City [триллер, драма, криминал, 1997] BDRip, Dub

salma3

0 | 0

2.18 ГБ

В этой теме нет новых непрочитанных сообщений. Город тусклых огней / City of Tiny Lights [триллер, драма, криминал, 2016] WEB-DLRip 720p, Mvo

salma3

18 | 0

3.28 ГБ

В этой теме нет новых непрочитанных сообщений. Жестокий полицейский / Violent cop [боевик, триллер, драма, криминал, 1989] BDRip 720p, Dvo+Sub

salma3

71 | 14

6.33 ГБ

В этой теме нет новых непрочитанных сообщений. Раса насилия / Дикая порода / Razza Violenta [Боевик, 1984] DVDRip, Avo

salma3

25 | 15

745.65 МБ

В этой теме нет новых непрочитанных сообщений. Город Грехов / City of Sin [триллер, драма, криминал, 2017] WEB-DLRip, Mvo

salma3

778 | 280

1.37 ГБ


Начать новую тему Ответить на тему  [ 1 сообщение ] 




Для Мосгорсуда, Роскомнадзора и рекламодателей:: mosgorsud-torrent[собачка]yandex.ru
cron