Торрент файл
скачать торрент магнет ссылка Добавлен: 18 сен 2017, 11:11
Размер: 3.71 ГБ
Сидеров: 1936
Личеров: 297
Статус: (salma3)
Автор

СообщениеДобавлено: 18 сен 2017, 11:11 

Не в сети
Супермодератор
Аватара пользователя
Дата регистрации:
15 фев 2012, 16:44
Возраст: 29
Спасибо: 7420 / 2147
Сообщения: 79751
Год выпуска: 2017
Жанр: ужасы, триллер, детектив
Режиссер: Дэвид Ф. Сандберг

В ролях: Стефани Сигман, Миранда Отто, Лулу Уилсон, Энтони ЛаПалья, Талита Бейтман, Алисия Вела-Бэйли, Керри О Мэлли, Филиппа Култхард, Джозеф Бишара, Адам Бартли

Описание:
Дочь Кукольника трагическим образом погибла. С тех пор прошло несколько лет. Безутешные родители решают пригласить в дом монахиню и несколько ее воспитанниц. Первое время кажется, что все идет своим чередом, однако Аннабель, долгое время не дававшая о себе знать, снова выходит на сцену…



Страна: США
Продолжительность: 01:51:15
Перевод: Любительский многоголосый [Студия "Paradox" & Omskbird records]

Файл
Кодек: MKV (H.264)
Качество: HDTV 1080p
Видео: MPEG-4 AVC, 4446 Кбит/с, 1920x806, 23.976 fps
Звук: AC3, 2 ch, 384 Кбит/с
Субтитры: Корейские (Вшитые)

Format : Matroska
Format version : Version 4 / Version 2
File size : 3.71 GiB
Duration : 1 h 50 min
Overall bit rate : 4 832 kb/s
Encoded date : UTC 2017-09-17 20:54:48
Writing application : mkvmerge v13.0.0 ('The Juggler') 64bit
Writing library : libebml v1.3.4 + libmatroska v1.4.5

Video
ID : 1
Format : AVC
Format/Info : Advanced Video Codec
Format profile : Main@L4.1
Format settings, CABAC : Yes
Format settings, ReFrames : 3 frames
Codec ID : V_MPEG4/ISO/AVC
Duration : 1 h 50 min
Bit rate : 4 446 kb/s
Width : 1 920 pixels
Height : 806 pixels
Display aspect ratio : 2.40:1
Frame rate mode : Constant
Frame rate : 23.976 (24000/1001) FPS
Standard : NTSC
Color space : YUV
Chroma subsampling : 4:2:0
Bit depth : 8 bits
Scan type : Progressive
Bits/(Pixel*Frame) : 0.120
Stream size : 3.42 GiB (92%)
Language : English
Default : Yes
Forced : No
Color range : Limited
Color primaries : BT.709
Transfer characteristics : BT.709
Matrix coefficients : BT.709

Audio
ID : 2
Format : AC-3
Format/Info : Audio Coding 3
Mode extension : CM (complete main)
Format settings, Endianness : Big
Codec ID : A_AC3
Duration : 1 h 50 min
Bit rate mode : Constant
Bit rate : 384 kb/s
Channel(s) : 2 channels
Channel positions : Front: L R
Sampling rate : 48.0 kHz
Frame rate : 31.250 FPS (1536 spf)
Bit depth : 16 bits
Compression mode : Lossy
Stream size : 302 MiB (8%)
Default : Yes
Forced : No


_________________
Проголосуй за трекер Открытый торрент трекер - RUS-MEDIA.ORG

Проголосуй Открытый торрент трекер - RUS-MEDIA.ORG


Вернуться к началу
 Профиль Отправить личное сообщение  
 
   Похожие торренты   Автор   Торрент   Размер 
В этой теме нет новых непрочитанных сообщений. Проклятие Аннабель: Зарождение зла / Annabelle: Creation [Ужасы, триллер, детектив, 2017] Blu-ray CEE 1080p, Dub [Лицензия]

salma3

21 | 13

39.88 ГБ

В этой теме нет новых непрочитанных сообщений. Проклятие Аннабель: Зарождение зла / Annabelle: Creation [Ужасы, триллер, детектив, 2017] BDRip 1080p, Dub [iTunes]

salma3

595 | 57

8.68 ГБ

В этой теме нет новых непрочитанных сообщений. Проклятие Аннабель: Зарождение зла / Annabelle: Creation [ужасы, триллер, детектив, 2017] HDTVRip, Mvo

salma3

1026 | 160

1.46 ГБ

В этой теме нет новых непрочитанных сообщений. Проклятие Аннабель: Зарождение зла / Annabelle: Creation [ужасы, триллер, детектив, 2017] HDTVRip, Mvo

salma3

531 | 99

1.46 ГБ

В этой теме нет новых непрочитанных сообщений. Проклятие Аннабель: Зарождение зла / Annabelle: Creation [ужасы, триллер, детектив, 2017] BDRip, Dub [Лицензия]

salma3

31 | 1

1.46 ГБ

В этой теме нет новых непрочитанных сообщений. Проклятие Аннабель: Зарождение зла / Annabelle: Creation [ужасы, триллер, детектив, 2017] BDRip 720p, Mvo

salma3

2 | 1

4.86 ГБ

В этой теме нет новых непрочитанных сообщений. Проклятие Аннабель: Зарождение зла / Annabelle: Creation [Ужасы, триллер, детектив, 2017] BDRip-AVC, Dub+Sub [iTunes]

salma3

207 | 13

1.76 ГБ


Начать новую тему Ответить на тему  [ 1 сообщение ] 




Для Мосгорсуда, Роскомнадзора и рекламодателей:: mosgorsud-torrent[собачка]yandex.ru
cron