Торрент файл
скачать торрент магнет ссылка Добавлен: 18 сен 2017, 20:50
Размер: 10.11 ГБ
Сидеров: 12
Личеров: 5
Статус: (salma3)
Автор

СообщениеДобавлено: 18 сен 2017, 20:50 

Не в сети
Супермодератор
Аватара пользователя
Дата регистрации:
15 фев 2012, 16:44
Возраст: 29
Спасибо: 7422 / 2147
Сообщения: 80035
Год выхода: 1964
Жанр: комедия, мелодрама
Режиссер: Хоуард Хоукс / Howard Hawks

В ролях: Рок Хадсон, Пола Прентисс, Мария Перши, Джон МакГайвер, Шарлин Холт, Роско Карнс, Джеймс Уэстерфилд, Норман Элден, Форрест Льюис, Режис Туми

О фильме:
Роджер Уиллоуби работает в магазине спортивных товаров и является автором хорошо продаваемого самоучителя по рыбной ловле. Роджеру удалось написать этот бестселлер, ни разу не побывав на рыбалке. Но однажды настойчивая, если не сказать настырная, девушка по имени Эбби вовлекает Роджера в соревнование рыбаков, а такому «профессионалу» негоже их проигрывать…



Страна: США
Продолжительность: 02:00:07
Перевод: Профессиональный (многоголосый закадровый)

Файл
Кодек: h.264
Качество: WEB-DL 1080p
Видео: 1920x1040, 1.85:1, 11600 kbps, 23.976 fps
Аудио1: Русский / многоголосый закадровый, AC3, 2 ch, 48 KHz, 192 kbps
Аудио2: Английский, AC3, 2 ch, 48 KHz, 224 kbps
Субтитры: английские (SRT)

Семпл

General
Unique ID : 243372967277205682672124838322912137640 (0xB717EDB45CA6F4DAB987DF46454891A8)
Complete name : D:DownloadsMans.Favorite.Sport.1964.WEB-DL.1080p.mkv
Format : Matroska
Format version : Version 4 / Version 2
File size : 10.1 GiB
Duration : 2 h 0 min
Overall bit rate mode : Variable
Overall bit rate : 12.0 Mb/s
Encoded date : UTC 2017-09-15 12:46:43
Writing application : mkvmerge v15.0.0 ('Duel with the Devil') 64-bit
Writing library : libebml v1.3.5 + libmatroska v1.4.5

Video
ID : 1
Format : AVC
Format/Info : Advanced Video Codec
Format profile : High@L4
Format settings, CABAC : Yes
Format settings, ReFrames : 4 frames
Codec ID : V_MPEG4/ISO/AVC
Duration : 2 h 0 min
Bit rate mode : Variable
Bit rate : 11.6 Mb/s
Maximum bit rate : 15.0 Mb/s
Width : 1 920 pixels
Height : 1 040 pixels
Display aspect ratio : 1.85:1
Frame rate mode : Constant
Frame rate : 23.976 (24000/1001) FPS
Color space : YUV
Chroma subsampling : 4:2:0
Bit depth : 8 bits
Scan type : Progressive
Bits/(Pixel*Frame) : 0.243
Stream size : 9.75 GiB (97%)
Default : Yes
Forced : No
Color range : Limited
Color primaries : BT.709
Transfer characteristics : BT.709
Matrix coefficients : BT.709

Audio #1
ID : 2
Format : AC-3
Format/Info : Audio Coding 3
Format settings, Endianness : Big
Codec ID : A_AC3
Duration : 2 h 0 min
Bit rate mode : Constant
Bit rate : 192 kb/s
Channel(s) : 2 channels
Channel positions : Front: L R
Sampling rate : 48.0 kHz
Frame rate : 31.250 FPS (1536 spf)
Bit depth : 16 bits
Compression mode : Lossy
Stream size : 165 MiB (2%)
Language : Russian
Service kind : Complete Main
Default : Yes
Forced : No

Audio #2
ID : 3
Format : E-AC-3
Format/Info : Enhanced Audio Coding 3
Format settings, Endianness : Big
Codec ID : A_EAC3
Duration : 2 h 0 min
Bit rate mode : Constant
Bit rate : 224 kb/s
Channel(s) : 2 channels
Channel positions : Front: L R
Sampling rate : 48.0 kHz
Frame rate : 187.500 FPS (256 spf)
Compression mode : Lossy
Stream size : 192 MiB (2%)
Language : English
Service kind : Complete Main
Default : No
Forced : No

Text
ID : 4
Format : UTF-8
Codec ID : S_TEXT/UTF8
Codec ID/Info : UTF-8 Plain Text
Duration : 1 h 59 min
Bit rate : 81 b/s
Count of elements : 2258
Stream size : 71.3 KiB (0%)
Language : English
Default : No
Forced : No


_________________
Проголосуй за трекер Открытый торрент трекер - RUS-MEDIA.ORG

Проголосуй Открытый торрент трекер - RUS-MEDIA.ORG


Вернуться к началу
 Профиль Отправить личное сообщение  
 
   Похожие торренты   Автор   Торрент   Размер 
В этой теме нет новых непрочитанных сообщений. Любимый спорт мужчин / Man's Favorite Sport? [мелодрама, комедия, 1964] WEB-DLRip, Mvo

salma3

46 | 3

1.46 ГБ

В этой теме нет новых непрочитанных сообщений. Любимый спорт мужчин / Man's Favorite Sport? [мелодрама, комедия, 1964] WEB-DL 720p, Mvo

salma3

39 | 22

3.74 ГБ

В этой теме нет новых непрочитанных сообщений. Мой любимый марсианин / My Favorite Martian [фантастика, комедия, семейный, 1999] WEBRip 1080p, Dub

salma3

59 | 16

9.78 ГБ

В этой теме нет новых непрочитанных сообщений. Трое мужчин и маленькая леди / Three Men And A Little Lady [Драма, мелодрама, комедия, 1990] WEB-DL 1080p, Mvo

salma3

0 | 0

10.57 ГБ

В этой теме нет новых непрочитанных сообщений. Брак по-итальянски / Matrimonio all'italiana [драма, мелодрама, комедия, 1964] BDRemux 1080p, Dub+Sub

salma3

24 | 9

19.49 ГБ

В этой теме нет новых непрочитанных сообщений. Секс и незамужняя девушка / Sex and the single girl [Комедия, Мелодрама, 1964] WEBRip 1080p, Dvo

salma3

65 | 20

10.54 ГБ

В этой теме нет новых непрочитанных сообщений. Мой любимый призрак [01-02 из 02] [Комедия, мистика, мелодрама, 2017] WEB-DLRip-AVC

salma3

11 | 5

1.2 ГБ


Начать новую тему Ответить на тему  [ 1 сообщение ] 




Для Мосгорсуда, Роскомнадзора и рекламодателей:: mosgorsud-torrent[собачка]yandex.ru
cron