Торрент файл
скачать торрент магнет ссылка Добавлен: 07 окт 2017, 15:06
Размер: 19.71 ГБ
Сидеров: 35
Личеров: 25
Статус: (salma3)
Автор

СообщениеДобавлено: 07 окт 2017, 15:06 

Не в сети
Супермодератор
Аватара пользователя
Дата регистрации:
15 фев 2012, 16:44
Возраст: 29
Спасибо: 7421 / 2147
Сообщения: 79842
Год выхода: 2008
Жанр: Фантастика, фэнтези, боевик
Режиссер: Гильермо Дель Торо

В ролях: Рон Перлман, Сэльма Блэр, Даг Джонс, Джон Александр, Джеймс Додд, Сет МакФарлейн, Люк Госс, Анна Уолтон, Джефри Тэмбор, Джон Хёрт

О фильме:
После того как древнее перемирие между человечеством и тайным миром было нарушено, на Земле вот-вот разверзнется ад. Безжалостный лидер, вхожий в оба мира, бросает вызов своей крови и пробуждает на свет неодолимую армию чудовищ. Настало время самому Хэллбою сразиться с беспощадным диктатором и его воинами. Вместе со своей пополняющей ряды командой «Бюро Паранормальных Исследований и Развития» он будет бороздить границы двух миров — нашего и скрытого, где самые невероятные существа обретают плоть. Хэллбою, порожденному обоими мирами, но не принадлежащему ни одному из них, предстоит выбирать между жизнью, которую он знает, и неизвестностью новой судьбы.



Страна: США
Продолжительность: 01:59:48
Перевод: Профессиональный (дублированный), профессиональный (многоголосый закадровый)

Файл
Формат: MKV
Качество: BDRemux 1080p
Видео: MPEG-4 AVC Video / 20976 kbps / 1920x1080 / 23,976 fps
Звук:
Russian: DTS / 5.1 / 1536 kbps (Студия "Кравец")
Russian: Dolby Digital Audio / 5.1 / 448 kbps (Дубляж)
English: Dolby Digital Audio / 5.1 / 640 kbps (Оригинал)

General
Complete name : D:FilmsHellboy II The Golden Army BDRemux 1080p.mkv
Format : Matroska
File size : 19.7 GiB
Duration : 1h 59mn
Overall bit rate : 23.5 Mbps
Movie name : Hellboy II: The Golden Army
Encoded date : UTC 2017-10-07 10:22:43
Writing application : mkvmerge v4.9.1 ('Ich will') сборка от Jul 11 2011 23:53:15
Writing library : libebml v1.2.1 + libmatroska v1.1.1

Video
ID : 1
Format : AVC
Format/Info : Advanced Video Codec
Format profile : High@L4.1
Format settings, CABAC : Yes
Format settings, ReFrames : 4 frames
Muxing mode : Container profile=Unknown@4.1
Codec ID : V_MPEG4/ISO/AVC
Duration : 1h 59mn
Bit rate : 20.5 Mbps
Width : 1 920 pixels
Height : 1 080 pixels
Display aspect ratio : 16:9
Frame rate : 23.976 fps
Resolution : 24 bits
Colorimetry : 4:2:0
Scan type : Progressive
Bits/(Pixel*Frame) : 0.412
Stream size : 17.1 GiB (87%)
Title : Хеллбой II: Золотая армия

Audio #1
ID : 2
Format : DTS
Format/Info : Digital Theater Systems
Codec ID : A_DTS
Duration : 1h 59mn
Bit rate mode : Constant
Bit rate : 1 510 Kbps
Channel(s) : 6 channels
Channel positions : Front: L C R, Surround: L R, LFE
Sampling rate : 48.0 KHz
Resolution : 24 bits
Stream size : 1.26 GiB (6%)
Title : Russian: DTS / 5.1 / 1536 kbps (Студия "Кравец")
Language : Russian

Audio #2
ID : 3
Format : AC-3
Format/Info : Audio Coding 3
Codec ID : A_AC3
Duration : 1h 59mn
Bit rate mode : Constant
Bit rate : 448 Kbps
Channel(s) : 6 channels
Channel positions : Front: L C R, Surround: L R, LFE
Sampling rate : 48.0 KHz
Stream size : 384 MiB (2%)
Title : Russian: Dolby Digital Audio / 5.1 / 448 kbps (Дубляж)
Language : Russian

Audio #3
ID : 4
Format : AC-3
Format/Info : Audio Coding 3
Codec ID : A_AC3
Duration : 1h 59mn
Bit rate mode : Constant
Bit rate : 640 Kbps
Channel(s) : 6 channels
Channel positions : Front: L C R, Surround: L R, LFE
Sampling rate : 48.0 KHz
Stream size : 548 MiB (3%)
Title : English: Dolby Digital Audio / 5.1 / 640 kbps (Оригинал)


_________________
Проголосуй за трекер Открытый торрент трекер - RUS-MEDIA.ORG

Проголосуй Открытый торрент трекер - RUS-MEDIA.ORG


Вернуться к началу
 Профиль Отправить личное сообщение  
 
   Похожие торренты   Автор   Торрент   Размер 
В этой теме нет новых непрочитанных сообщений. Хеллбой II: Золотая армия / Hellboy II: The Gоlden Аrmy [Фантастика, фэнтези, боевик, 2008] BDRip 720p, Dub

salma3

0 | 0

7.15 ГБ

В этой теме нет новых непрочитанных сообщений. Хеллбой: Герой из пекла / Hellboy [Фантастика, фэнтези, боевик, 2004] BDRemux 1080p, Dub [Theatrical Cut] [Лицензия]

salma3

0 | 29

26.81 ГБ

В этой теме нет новых непрочитанных сообщений. Хеллбой: Герой из пекла / Hellboy [Фантастика, фэнтези, боевик, 2004] HDRip-AVC, Dub [Режиссерская версия]

salma3

0 | 1

2.7 ГБ

В этой теме нет новых непрочитанных сообщений. Город Эмбер: Побег / City of Ember [фантастика, фэнтези, приключения, 2008] BDRemux 1080p, Dub [Лицензия]

salma3

20 | 13

14.84 ГБ

В этой теме нет новых непрочитанных сообщений. Чудо-женщина / Wonder Woman [Фэнтези, фантастика, боевик, 2017] BDRemux 1080p, Dub [Лицензия]

salma3

0 | 0

42.95 ГБ

В этой теме нет новых непрочитанных сообщений. Люди Икс: Апокалипсис / X-Men: Apocalypse [Фантастика, фэнтези, боевик, приключения, 2016] BDRemux 1080p, Dub [Лицензия]

salma3

1 | 2

30.02 ГБ

В этой теме нет новых непрочитанных сообщений. Доктор Стрэндж / Doctor Strange [Фантастика, фэнтези, боевик, 2016] BDRemux 1080p, Dub [Лицензия]

salma3

0 | 0

36.17 ГБ


Начать новую тему Ответить на тему  [ 1 сообщение ] 




Для Мосгорсуда, Роскомнадзора и рекламодателей:: mosgorsud-torrent[собачка]yandex.ru
cron