Торрент файл
скачать торрент магнет ссылка Добавлен: 08 окт 2017, 15:54
Размер: 25.4 ГБ
Сидеров: 1
Личеров: 11
Статус: (salma3)
Автор

СообщениеДобавлено: 08 окт 2017, 15:54 

Не в сети
Супермодератор
Аватара пользователя
Дата регистрации:
15 фев 2012, 16:44
Возраст: 29
Спасибо: 7401 / 2147
Сообщения: 78593
Год выхода: 1997
Жанр: Фантастика, мелодрама, драма
Режиссер: Эндрю Никкол

В ролях: Джуд Лоу, Итэн Хоук, Ума Турман, Гор Видал, Ксандер Беркли, Джейн Брук, Элиас Котеас, Майя Рудольф, Элизабет Деннехи, Блэр Андервуд, Мэйсон Гэмбл, Уильям Ли Скотт, Кларенс Грэхэм, Эрнест Боргнайн,

О фильме:
"Посмотри на деяния Божьи, кто может выправить то, что он сотворил кривым?" (Экклизиаст, 7, 16). "Я не только считаю, что мы будем экспериментировать с матерью-природой, но и думаю, что она сама этого хочет" (Уиллард Гэйлин). После таких наводящих на размышления фраз начинается действие фильма в... недалеком будущем. Каждый человек "нового" мира генетически запрограммирован — обладает практически неограниченным сроком жизни, мощным интеллектом, силой и... отсутствием эмоций. Это элита мира, перед которой открыты все двери. Но есть и мозги "божьи" — рожденные не из пробирок, а зачатые в любви. С самого рождения они — изгои с ярлыком "не пригоден". Таков наш герой Винсент Фримэн. Он подвержен страстям, эмоционален и верит в то, что его мечты — полет к звездам — сбудутся. Вот почему он покупает личность другого человека, пытаясь обмануть власти и стать уважаемым членом Корпорации Будущего "Гаттака". И когда он уже на пути к свободе, убийство грозит раскрытием его реальной личности. Несмотря на свою невиновность, Винсенту есть что скрывать и есть что терять. Но так трудно остаться в живых, когда в тебе живут два человека…



Страна: США
Продолжительность: 01:46:27
Перевод: Дублированный, профессиональный многоголосый, авторский

Файл
Кодек: MPEG-4 AVC
Качество: BDRemux 1080p
Видео: 26139 Kбит/с, 1920x1080, 23.976 кадр/с
Аудио 1: Английский Dolby TrueHD Audio 5.1 / 48 kHz / 2594 kbps / 24-bit (AC3 Embedded: 5.1 / 48 kHz / 448 kbps / DN -1dB) - Оригинал
Аудио 2: Русский АСЗ 2.0 / 48 kHz / 192 kbps / DN -1dB - Профессиональный многоголосый
Аудио 3: Русский АСЗ 5.1 / 48 kHz / 640 kbps / DN -4dB - Дубляж
Аудио 4: Русский DTS Audio 5.1 / 48 kHz, 1509 kbps, 24-bit - Авторский (Ю. Сербин)
Аудио 5: Русский DTS Audio 5.1 / 48 kHz, 1509 kbps, 24-bit - Авторский (Ю. Живов)
Аудио 6: Русский DTS Audio 5.1 / 48 kHz, 1509 kbps, 24-bit - Авторский (А. Попов)
Субтитры: Русские, английские
Главы: есть

Сатурн, 1999 год
Номинации (1):
Лучшее VHS-издание
Оскар, 1998 год
Номинации (1):
Лучшие декорации
Золотой глобус, 1998 год
Номинации (1):
Лучший саундтрек
Сатурн, 1998 год
Номинации (2):
Лучшие костюмы
Лучшая музыка
- Во время съемок фильма Ума Турман и Этан Хоук стали встречаться, через год она родила ребёнка и они поженились.
- Объявления внутри здания Гаттаки произносятся на искусственном языке эсперанто.
- В финальных титрах в именах и фамилиях участников голубым цветом выделены буквы, образующие название фильма.
- Героиня Умы Турман названа в честь итальянского астронома Кассини. В год выхода фильма к Сатурну был запущен одноименный зонд, а в 2005 году он достиг Титана — главной цели Винсента.
- В фильме используются автомобили 1960-х годов: полицейский Rover P6 и Citroen DS, на котором ездит Айрин.
- Все участвующие в фильме автомобили - электромобили. Бесконтактное зарядное устройство, используемое в фильме, взято от электромобиля EV1 выпущенного в 1999-м году.
- Лестница в квартире Джерома стилизована под спираль ДНК.
- Слово «гаттака» образовано из первых букв четырех азотистых оснований цепей ДНК (дезоксирибонуклеиновая кислота) – аденин, гуанин, цитозин и тимин.
- Колоссальное сооружение Гаттаки в действительности является зданием «Marin County Civil Center», расположенном в Сан Рафаэле (Калифорния, США) и построенном архитектором Фрэнком Ллойдом Райтом (Frank lloyd Wright) в 1957 году. И это здание также фигурировало в дебютном фантастическом фильме Джорджа Лукаса (George Lucas) «THX 1138».
- Первоначально картина называлась «Восьмой день» (The Eighth Day).
- Общая длина 35-миллиметровой пленки фильма «Гаттака» – 2918 метра.
- Автомобиль, на котором ездил Винсент Фриман – «Studebaker Avanti» 1963 года.

Общее
Уникальный идентификатор : 234151299631924575217088330542745884977 (0xB027E662FB26E4C785C7B5D0C0539931)
Полное имя : D:\РЕМУКС!!!!!\Гаттака.BDRemux..mkv
Формат : Matroska
Версия формата : Version 4 / Version 2
Размер файла : 25,4 Гбайт
Продолжительность : 1 ч. 46 м.
Режим общего битрейта : Переменный
Общий поток : 34,2 Мбит/сек
Название фильма : Гаттака.BDRemux.thx: SPOMOPS.
Дата кодирования : UTC 2016-01-07 16:15:45
Программа кодирования : mkvmerge v6.1.0 ('Old Devil') built on Mar 4 2013 09:10:42
Библиотека кодирования : libebml v1.3.0 + libmatroska v1.4.0

Видео
Идентификатор : 1
Формат : AVC
Формат/Информация : Advanced Video Codec
Профиль формата : High@L4.1
Параметр CABAC формата : Да
Параметр ReFrames формата : 2 кадра
Идентификатор кодека : V_MPEG4/ISO/AVC
Продолжительность : 1 ч. 46 м.
Вид битрейта : Переменный
Ширина : 1920 пикселей
Высота : 1080 пикселей
Соотношение сторон : 16:9
Режим частоты кадров : Постоянный
Частота кадров : 23,976 кадра/сек
Цветовое пространство : YUV
Субдискретизация насыщенности : 4:2:0
Битовая глубина : 8 бит
Тип развёртки : Прогрессивная
Default : Да
Forced : Нет

Аудио #1
Идентификатор : 2
Формат : TrueHD
Идентификатор кодека : A_TRUEHD
Продолжительность : 1 ч. 46 м.
Вид битрейта : Переменный
Максимальный битрейт : 4158 Кбит/сек
Каналы : 6 каналов
Расположение каналов : Front: L C R, Side: L R, LFE
Частота : 48,0 КГц
Метод сжатия : Без потерь
Заголовок : Английский TrueHD / 2594 kbps - оригинал
Язык : English
Default : Нет
Forced : Нет

Аудио #2
Идентификатор : 3
Формат : AC-3
Формат/Информация : Audio Coding 3
Расширение режима : CM (complete main)
Параметр Endianness формата : Big
Идентификатор кодека : A_AC3
Продолжительность : 1 ч. 46 м.
Вид битрейта : Постоянный
Битрейт : 192 Кбит/сек
Каналы : 2 канала
Расположение каналов : Front: L R
Частота : 48,0 КГц
Битовая глубина : 16 бит
Метод сжатия : С потерями
Размер потока : 146 Мбайт (1%)
Заголовок : Русский АСЗ 192 kbps - ПМ
Язык : Russian
Default : Нет
Forced : Нет

Аудио #3
Идентификатор : 4
Формат : AC-3
Формат/Информация : Audio Coding 3
Расширение режима : CM (complete main)
Параметр Endianness формата : Big
Идентификатор кодека : A_AC3
Продолжительность : 1 ч. 46 м.
Вид битрейта : Постоянный
Битрейт : 640 Кбит/сек
Каналы : 6 каналов
Расположение каналов : Front: L C R, Side: L R, LFE
Частота : 48,0 КГц
Битовая глубина : 16 бит
Метод сжатия : С потерями
Размер потока : 487 Мбайт (2%)
Заголовок : Русский АСЗ 640 kbps - дубляж
Язык : Russian
Default : Да
Forced : Нет

Аудио #4
Идентификатор : 5
Формат : DTS
Формат/Информация : Digital Theater Systems
Режим : 16
Параметр Endianness формата : Big
Идентификатор кодека : A_DTS
Продолжительность : 1 ч. 46 м.
Вид битрейта : Постоянный
Битрейт : 1509 Кбит/сек
Каналы : 6 каналов
Расположение каналов : Front: L C R, Side: L R, LFE
Частота : 48,0 КГц
Битовая глубина : 24 бит
Метод сжатия : С потерями
Размер потока : 1,12 Гбайт (4%)
Заголовок : Русский DTS, 1510.00 kbps - Ю. Сербин
Язык : Russian
Default : Нет
Forced : Нет

Аудио #5
Идентификатор : 6
Формат : DTS
Формат/Информация : Digital Theater Systems
Режим : 16
Параметр Endianness формата : Big
Идентификатор кодека : A_DTS
Продолжительность : 1 ч. 46 м.
Вид битрейта : Постоянный
Битрейт : 1509 Кбит/сек
Каналы : 6 каналов
Расположение каналов : Front: L C R, Side: L R, LFE
Частота : 48,0 КГц
Битовая глубина : 24 бит
Метод сжатия : С потерями
Размер потока : 1,12 Гбайт (4%)
Заголовок : Русский DTS, 1510.00 kbps - Ю. Живов
Язык : Russian
Default : Нет
Forced : Нет

Аудио #6
Идентификатор : 7
Формат : DTS
Формат/Информация : Digital Theater Systems
Режим : 16
Параметр Endianness формата : Big
Идентификатор кодека : A_DTS
Продолжительность : 1 ч. 46 м.
Вид битрейта : Постоянный
Битрейт : 1509 Кбит/сек
Каналы : 6 каналов
Расположение каналов : Front: L C R, Side: L R, LFE
Частота : 48,0 КГц
Битовая глубина : 24 бит
Метод сжатия : С потерями
Размер потока : 1,12 Гбайт (4%)
Заголовок : Русский DTS, 1510.00 kbps - А. Попов
Язык : Russian
Default : Нет
Forced : Нет

Текст #1
Идентификатор : 8
Формат : UTF-8
Идентификатор кодека : S_TEXT/UTF8
Идентификатор кодека/Информация : UTF-8 Plain Text
Заголовок : Русские
Язык : Russian
Default : Нет
Forced : Нет

Текст #2
Идентификатор : 9
Формат : UTF-8
Идентификатор кодека : S_TEXT/UTF8
Идентификатор кодека/Информация : UTF-8 Plain Text
Заголовок : Английские
Язык : English
Default : Нет
Forced : Нет

Текст #3
Идентификатор : 10
Формат : UTF-8
Идентификатор кодека : S_TEXT/UTF8
Идентификатор кодека/Информация : UTF-8 Plain Text
Заголовок : Английские
Язык : English
Default : Нет
Forced : Нет

Меню
00:00:00.000 : :Chapter 01
00:07:39.083 : :Chapter 02
00:10:58.491 : :Chapter 03
00:18:49.711 : :Chapter 04
00:23:40.210 : :Chapter 05
00:31:38.730 : :Chapter 06
00:37:20.947 : :Chapter 07
00:43:47.541 : :Chapter 08
00:48:39.207 : :Chapter 09
00:56:10.867 : :Chapter 10
01:03:50.409 : :Chapter 11
01:08:56.257 : :Chapter 12
01:17:00.949 : :Chapter 13
01:22:14.387 : :Chapter 14
01:28:35.518 : :Chapter 15
01:34:10.728 : :Chapter 16



_________________
Проголосуй за трекер Открытый торрент трекер - RUS-MEDIA.ORG

Проголосуй Открытый торрент трекер - RUS-MEDIA.ORG


Вернуться к началу
 Профиль Отправить личное сообщение  
 
   Похожие торренты   Автор   Торрент   Размер 
В этой теме нет новых непрочитанных сообщений. Гаттака / Gattaca [фантастика, драма, мелодрама, 1997] WEB-DL 1080p, Dub [Open Matte]

salma3

0 | 0

12.51 ГБ

В этой теме нет новых непрочитанных сообщений. Гаттака / Gattaca [Фантастика, триллер, мелодрама, 1997] BDRip 1080p, Dub

salma3

0 | 0

12.03 ГБ

В этой теме нет новых непрочитанных сообщений. Гаттака / Gattaca [фантастика, драма, мелодрама, 1997] WEB-DLRip-AVC, Dub [Open Matte]

salma3

4 | 13

1.41 ГБ

В этой теме нет новых непрочитанных сообщений. Лолита / Lolita [Драма, мелодрама, экранизация, 1997] BDRemux 1080p, Mvo+Dub+Sub

salma3

8 | 12

32.99 ГБ

В этой теме нет новых непрочитанных сообщений. Открой глаза / Abre los ojos [фантастика, триллер, драма, 1997] BDRemux 1080p, Mvo+Avo+Sub

salma3

3 | 4

32.04 ГБ

В этой теме нет новых непрочитанных сообщений. Титаник / Titanic [Драма, катастрофа, мелодрама, 1997] BDRemux 1080p, Dub [Open Matte]

salma3

5 | 2

59.66 ГБ

В этой теме нет новых непрочитанных сообщений. Мутанты / Mimic [ужасы, фантастика, 1997] BDRemux 1080p, Dvo [Director's cut]

salma3

0 | 0

35.93 ГБ


Начать новую тему Ответить на тему  [ 1 сообщение ] 




Для Мосгорсуда, Роскомнадзора и рекламодателей:: mosgorsud-torrent[собачка]yandex.ru
cron