Торрент файл
скачать торрент магнет ссылка Добавлен: 18 окт 2017, 10:47
Размер: 36.04 ГБ
Сидеров: 1
Личеров: 1
Статус: (salma3)
Автор

СообщениеДобавлено: 18 окт 2017, 10:47 

Не в сети
Супермодератор
Аватара пользователя
Дата регистрации:
15 фев 2012, 16:44
Возраст: 29
Спасибо: 7428 / 2147
Сообщения: 80186
Год выхода: 1993
Жанр: Фантастика, приключения, семейный
Режиссер: Стивен Спилберг

В ролях: Сэм Нилл, Лора Дерн, Джефф Голдблюм, Ричард Аттенборо, Джозеф Маццелло, Ариана Ричардс, Уэйн Найт, Боб Пек, Мартин Ферреро, Сэмюэл Л. Джексон, Б. Д. Вонг, Джералд Р. Молен, Мигель Сандовал, Кэмерон Тор, Кристофер Джон Филдс, Уайтби Хертфорд, Дин Канди, Джофри С. Браун, Том Мишлер, Грег Берсон, Адриан Эскобар, Ричард Кайли

О фильме:
Экспансивный богач и профессор уговаривает пару ученых-палеонтологов приехать на остров у побережья Коста-Рики, где он устроил реликтовый парк. В парке этом водятся древние зверушки — динозавры, которые по его идее и должны стать гвоздем программы нового аттракциона. До открытия остается несколько дней, а один из работников, пытаясь продать «рассаду» налево, нарушает систему охраны, что в комплексе с грозовым ливнем приводит к тому, что доисторические животные оказываются на воле, где действуют в соответствии со своими инстинктами.



Страна: США
Продолжительность: 02:06:36
Перевод: Дублированный, профессиональный многоголосый, авторский

Файл
Кодек: VC-1
Качество: BDRemux 1080p
Видео: 25150 Кбит/с, 1920x1080, 23.976 кадр/с
Аудио 1: Английский / DTS-HD Master Audio / 7.1 / 48 kHz / 5539 kbps / 24-bit (DTS Core: 5.1 / 48 kHz / 1509 kbps / 24-bit) - Оригинал
Аудио 2: Русский / Dolby Digital Audio / 5.1 / 48 kHz / 448 kbps / DN -4dB - Профессиональный многоголосый
Аудио 3: Русский / DTS-HD Master Audio / 7.1 / 48 kHz / 5539 kbps / 24-bit (DTS Core: 5.1 / 48 kHz / 1509 kbps / 24-bit) - Дубляж (Kinоton)
Аудио 4: Русский / 48 kHz, AC3, 3/2 (L,C,R,l,r) + LFE ch, ~448 kbps avg - Дубляж
Аудио 5: Русский / 48 kHz, AC3, 3/2 (L,C,R,l,r) + LFE ch, ~448 kbps avg - Профессиональный многоголосый (Киномания)
Аудио 6: Русский / 48 kHz, AC3, 2/0 (L,R) ch, ~192 kbps avg - Профессиональный многоголосый (Премьер Видео Фильм)
Аудио 7: Русский / 48 kHz, DTS 5.1, 768 kbps - Авторский (Ю. Живов)
Аудио 8: Русский / 48 kHz, AC3, 3/2 (L,C,R,l,r) + LFE ch, ~640 kbps avg - Авторский (В. Яковлев)
Аудио 9: Русский / 48 kHz, AC3, 3/2 (L,C,R,l,r) + LFE ch, ~384 kbps avg - Авторский (А. Гаврилов)
Аудио 10: Русский / 48 kHz, AC3, 2/0 (L,R) ch, ~192 kbps avg - Авторский (Л. Володарский)
Аудио 11: Русский / 48 kHz, AC3, 2/0 (L,R) ch, ~192 kbps avg - Авторский (В. Горчаков)
Аудио 12: Украинский / 48 kHz, AC3, 3/2 (L,C,R,l,r) + LFE ch, ~448 kbps avg - Профессиональный двухголосый (1+1)
Аудио 13: Украинский / 48 kHz, AC3, 3/2 (L,C,R,l,r) + LFE ch, ~448 kbps avg - Профессиональный двухголосый (Новый канал)
Субтитры: Русские, английские
Главы: есть

Оскар, 1994 год
Победитель (3):
Лучший звук
Лучший монтаж звука
Лучшие визуальные эффекты
Премия канала «MTV», 1994 год
Номинации (3):
Лучший фильм
Лучшая экшн-сцена
Лучший злодей — «Динозавр Ти-Рекс»
Британская академия, 1994 год
Победитель (1):
Лучшие визуальные эффекты
Номинации (1):
Лучший звук
Сатурн, 1994 год
Победитель (4):
Лучший научно-фантастический фильм
Лучший режиссер (Стивен Спилберг)
Лучший сценарий
Лучшие спецэффекты
Номинации (7):
Лучшая актриса (Лора Дерн)
Лучший молодой актер/актриса (Джозеф Маццелло)
Лучший молодой актер/актриса (Ариана Ричардс)
Лучший актер второго плана (Джефф Голдблюм)
Лучший актер второго плана (Уэйн Найт)
Лучшие костюмы
Лучшая музыка

Общее
Уникальный идентификатор : 249038847626768000949881782346313762420 (0xBB5B232C628213D4A4A2C242D6F20674)
Полное имя : D:\РЕМУКС!!!!!\Парк Юрского периода.BDRemux..mkv
Формат : Matroska
Версия формата : Version 4 / Version 2
Размер файла : 36,0 Гбайт
Продолжительность : 2 ч. 6 м.
Режим общего битрейта : Переменный
Общий поток : 40,7 Мбит/сек
Название фильма : Парк Юрского периода.BDRemux.thx:SPOMOPS
Дата кодирования : UTC 2015-11-08 17:13:02
Программа кодирования : mkvmerge v6.1.0 ('Old Devil') built on Mar 4 2013 09:10:42
Библиотека кодирования : libebml v1.3.0 + libmatroska v1.4.0

Видео
Идентификатор : 1
Формат : VC-1
Профиль формата : Advanced@L3
Идентификатор кодека : V_MS/VFW/FOURCC / WVC1
Идентификатор кодека/Подсказка : Microsoft
Продолжительность : 2 ч. 6 м.
Ширина : 1920 пикселей
Высота : 1080 пикселей
Соотношение сторон : 16:9
Режим частоты кадров : Постоянный
Частота кадров : 23,976 кадра/сек
Цветовое пространство : YUV
Субдискретизация насыщенности : 4:2:0
Битовая глубина : 8 бит
Тип развёртки : Прогрессивная
Метод сжатия : С потерями
Default : Да
Forced : Нет

Аудио #1
Идентификатор : 2
Формат : DTS
Формат/Информация : Digital Theater Systems
Профиль формата : MA / Core
Режим : 16
Параметр Endianness формата : Big
Идентификатор кодека : A_DTS
Продолжительность : 2 ч. 6 м.
Вид битрейта : Переменный
Битрейт : Неизвестно / 1509 Кбит/сек
Каналы : 8 каналов / 6 каналов
Расположение каналов : Front: L C R, Side: L R, Back: L R, LFE / Front: L C R, Side: L R, LFE
Частота : 48,0 КГц
Битовая глубина : 24 бит
Метод сжатия : Без потерь / Lossy
Заголовок : Английский DTS-HD M A / 7.1 / 5539 kbps - оригинал
Язык : English
Default : Нет
Forced : Нет

Аудио #2
Идентификатор : 3
Формат : AC-3
Формат/Информация : Audio Coding 3
Расширение режима : CM (complete main)
Параметр Endianness формата : Big
Идентификатор кодека : A_AC3
Продолжительность : 2 ч. 6 м.
Вид битрейта : Постоянный
Битрейт : 448 Кбит/сек
Каналы : 6 каналов
Расположение каналов : Front: L C R, Side: L R, LFE
Частота : 48,0 КГц
Битовая глубина : 16 бит
Метод сжатия : С потерями
Размер потока : 406 Мбайт (1%)
Заголовок : Русский АСЗ 448 kbps - многоголосый закадровый
Язык : Russian
Default : Нет
Forced : Нет

Аудио #3
Идентификатор : 4
Формат : DTS
Формат/Информация : Digital Theater Systems
Профиль формата : MA / Core
Режим : 16
Параметр Endianness формата : Big
Идентификатор кодека : A_DTS
Продолжительность : 2 ч. 6 м.
Вид битрейта : Переменный
Битрейт : Неизвестно / 1509 Кбит/сек
Каналы : 8 каналов / 6 каналов
Расположение каналов : Front: L C R, Side: L R, Back: L R, LFE / Front: L C R, Side: L R, LFE
Частота : 48,0 КГц
Битовая глубина : 24 бит
Метод сжатия : Без потерь / Lossy
Задержка видео : -42 мс.
Заголовок : Русский DTS-HD M A / 5539 kbps - Дубляж
Язык : Russian
Default : Да
Forced : Нет

Аудио #4
Идентификатор : 5
Формат : AC-3
Формат/Информация : Audio Coding 3
Расширение режима : CM (complete main)
Параметр Endianness формата : Big
Идентификатор кодека : A_AC3
Продолжительность : 2 ч. 6 м.
Вид битрейта : Постоянный
Битрейт : 448 Кбит/сек
Каналы : 6 каналов
Расположение каналов : Front: L C R, Side: L R, LFE
Частота : 48,0 КГц
Битовая глубина : 16 бит
Метод сжатия : С потерями
Задержка видео : -42 мс.
Размер потока : 406 Мбайт (1%)
Заголовок : Русский АСЗ 448 kbps avg - Дубляж
Язык : Russian
Default : Нет
Forced : Нет

Аудио #5
Идентификатор : 6
Формат : AC-3
Формат/Информация : Audio Coding 3
Расширение режима : CM (complete main)
Параметр Endianness формата : Big
Идентификатор кодека : A_AC3
Продолжительность : 2 ч. 6 м.
Вид битрейта : Постоянный
Битрейт : 448 Кбит/сек
Каналы : 6 каналов
Расположение каналов : Front: L C R, Side: L R, LFE
Частота : 48,0 КГц
Битовая глубина : 16 бит
Метод сжатия : С потерями
Задержка видео : -42 мс.
Размер потока : 406 Мбайт (1%)
Заголовок : Русский АСЗ 448 kbps avg - Многоголосый закадровый, Киномания
Язык : Russian
Default : Нет
Forced : Нет

Аудио #6
Идентификатор : 7
Формат : AC-3
Формат/Информация : Audio Coding 3
Расширение режима : CM (complete main)
Параметр Endianness формата : Big
Идентификатор кодека : A_AC3
Продолжительность : 2 ч. 6 м.
Вид битрейта : Постоянный
Битрейт : 192 Кбит/сек
Каналы : 2 канала
Расположение каналов : Front: L R
Частота : 48,0 КГц
Битовая глубина : 16 бит
Метод сжатия : С потерями
Задержка видео : -42 мс.
Размер потока : 174 Мбайт (0%)
Заголовок : Русский АСЗ 192 kbps avg - Многоголосый закадровый, Премьер Видео Фильм
Язык : Russian
Default : Нет
Forced : Нет

Аудио #7
Идентификатор : 8
Формат : DTS
Формат/Информация : Digital Theater Systems
Режим : 16
Параметр Endianness формата : Big
Идентификатор кодека : A_DTS
Продолжительность : 2 ч. 6 м.
Вид битрейта : Постоянный
Битрейт : 768 Кбит/сек
Каналы : 6 каналов
Расположение каналов : Front: L C R, Side: L R, LFE
Частота : 48,0 КГц
Битовая глубина : 24 бит
Метод сжатия : С потерями
Задержка видео : -42 мс.
Размер потока : 696 Мбайт (2%)
Заголовок : Русский DTS . 768 kbps avg , Ю. Живов
Язык : Russian
Default : Нет
Forced : Нет

Аудио #8
Идентификатор : 9
Формат : AC-3
Формат/Информация : Audio Coding 3
Расширение режима : CM (complete main)
Параметр Endianness формата : Big
Идентификатор кодека : A_AC3
Продолжительность : 2 ч. 6 м.
Вид битрейта : Постоянный
Битрейт : 640 Кбит/сек
Каналы : 6 каналов
Расположение каналов : Front: L C R, Side: L R, LFE
Частота : 48,0 КГц
Битовая глубина : 16 бит
Метод сжатия : С потерями
Задержка видео : -42 мс.
Размер потока : 580 Мбайт (2%)
Заголовок : Русский АСЗ 640 kbps avg , В. Яковлев
Язык : Russian
Default : Нет
Forced : Нет

Аудио #9
Идентификатор : 10
Формат : AC-3
Формат/Информация : Audio Coding 3
Расширение режима : CM (complete main)
Параметр Endianness формата : Big
Идентификатор кодека : A_AC3
Продолжительность : 2 ч. 6 м.
Вид битрейта : Постоянный
Битрейт : 384 Кбит/сек
Каналы : 6 каналов
Расположение каналов : Front: L C R, Side: L R, LFE
Частота : 48,0 КГц
Битовая глубина : 16 бит
Метод сжатия : С потерями
Задержка видео : -42 мс.
Размер потока : 348 Мбайт (1%)
Заголовок : Русский АСЗ 384 kbps avg , А. Гаврилов (ранний)
Язык : Russian
Default : Нет
Forced : Нет

Аудио #10
Идентификатор : 11
Формат : AC-3
Формат/Информация : Audio Coding 3
Расширение режима : CM (complete main)
Параметр Endianness формата : Big
Идентификатор кодека : A_AC3
Продолжительность : 2 ч. 6 м.
Вид битрейта : Постоянный
Битрейт : 192 Кбит/сек
Каналы : 2 канала
Расположение каналов : Front: L R
Частота : 48,0 КГц
Битовая глубина : 16 бит
Метод сжатия : С потерями
Задержка видео : -42 мс.
Размер потока : 174 Мбайт (0%)
Заголовок : Русский АСЗ 192 kbps avg , Л. Володарский
Язык : Russian
Default : Нет
Forced : Нет

Аудио #11
Идентификатор : 12
Формат : AC-3
Формат/Информация : Audio Coding 3
Расширение режима : CM (complete main)
Параметр Endianness формата : Big
Идентификатор кодека : A_AC3
Продолжительность : 2 ч. 6 м.
Вид битрейта : Постоянный
Битрейт : 192 Кбит/сек
Каналы : 2 канала
Расположение каналов : Front: L R
Частота : 48,0 КГц
Битовая глубина : 16 бит
Метод сжатия : С потерями
Задержка видео : -42 мс.
Размер потока : 174 Мбайт (0%)
Заголовок : Русский АСЗ 192 kbps avg , В. Горчаков
Язык : Russian
Default : Нет
Forced : Нет

Аудио #12
Идентификатор : 13
Формат : AC-3
Формат/Информация : Audio Coding 3
Расширение режима : CM (complete main)
Параметр Endianness формата : Big
Идентификатор кодека : A_AC3
Продолжительность : 2 ч. 6 м.
Вид битрейта : Постоянный
Битрейт : 448 Кбит/сек
Каналы : 6 каналов
Расположение каналов : Front: L C R, Side: L R, LFE
Частота : 48,0 КГц
Битовая глубина : 16 бит
Метод сжатия : С потерями
Задержка видео : -42 мс.
Размер потока : 406 Мбайт (1%)
Заголовок : Украинский АСЗ 448 kbps avg - Двухголосый закадровый, 1+1
Язык : Ukrainian
Default : Нет
Forced : Нет

Аудио #13
Идентификатор : 14
Формат : AC-3
Формат/Информация : Audio Coding 3
Расширение режима : CM (complete main)
Параметр Endianness формата : Big
Идентификатор кодека : A_AC3
Продолжительность : 2 ч. 6 м.
Вид битрейта : Постоянный
Битрейт : 448 Кбит/сек
Каналы : 6 каналов
Расположение каналов : Front: L C R, Side: L R, LFE
Частота : 48,0 КГц
Битовая глубина : 16 бит
Метод сжатия : С потерями
Задержка видео : -42 мс.
Размер потока : 406 Мбайт (1%)
Заголовок : Украинский АСЗ 448 kbps avg - Двухголосый закадровый, Новый канал
Язык : Ukrainian
Default : Нет
Forced : Нет

Текст #1
Идентификатор : 15
Формат : UTF-8
Идентификатор кодека : S_TEXT/UTF8
Идентификатор кодека/Информация : UTF-8 Plain Text
Заголовок : Русские - надписи
Язык : Russian
Default : Да
Forced : Нет

Текст #2
Идентификатор : 16
Формат : UTF-8
Идентификатор кодека : S_TEXT/UTF8
Идентификатор кодека/Информация : UTF-8 Plain Text
Заголовок : Русские
Язык : Russian
Default : Нет
Forced : Нет

Текст #3
Идентификатор : 17
Формат : UTF-8
Идентификатор кодека : S_TEXT/UTF8
Идентификатор кодека/Информация : UTF-8 Plain Text
Заголовок : Английские
Язык : English
Default : Нет
Forced : Нет

Меню
00:00:00.000 : :Chapter 01
00:05:19.819 : :Chapter 02
00:10:14.739 : :Chapter 03
00:15:17.041 : :Chapter 04
00:19:33.213 : :Chapter 05
00:23:46.800 : :Chapter 06
00:31:40.148 : :Chapter 07
00:37:59.193 : :Chapter 08
00:40:26.674 : :Chapter 09
00:55:28.033 : :Chapter 10
01:01:43.241 : :Chapter 11
01:10:44.114 : :Chapter 12
01:20:01.129 : :Chapter 13
01:34:03.971 : :Chapter 14
01:39:45.312 : :Chapter 15
01:43:43.175 : :Chapter 16
01:47:56.845 : :Chapter 17
01:54:45.378 : :Chapter 18
01:58:04.410 : :Chapter 19
01:59:55.980 : :Chapter 20
02:06:36.338 : :Chapter 21



_________________
Проголосуй за трекер Открытый торрент трекер - RUS-MEDIA.ORG

Проголосуй Открытый торрент трекер - RUS-MEDIA.ORG


Вернуться к началу
 Профиль Отправить личное сообщение  
 
   Похожие торренты   Автор   Торрент   Размер 
В этой теме нет новых непрочитанных сообщений. Парк Юрского периода / Jurassic Park [Фантастика, приключения, семейный, 1993] UHD BDRemux 2160p, Dub [4K]

salma3

0 | 0

115.13 ГБ

В этой теме нет новых непрочитанных сообщений. Парк Юрского периода / Jurassic Park [приключения, фантастика, семейный, 1993] BDRip 1080p, Dub+Mvo+Sub

salma3

18 | 31

14.55 ГБ

В этой теме нет новых непрочитанных сообщений. Парк Юрского периода 3 / Jurassic Park III [Фантастика, триллер, приключения, 2001] UHD BDRemux 2160p , Dub [4K]

salma3

0 | 0

57.57 ГБ

В этой теме нет новых непрочитанных сообщений. Парк Юрского периода 2: Затерянный мир / The Lost World: Jurassic Park [фантастика, боевик, приключения, 1997] BDRip 1080p, Dub

salma3

37 | 40

10.15 ГБ

В этой теме нет новых непрочитанных сообщений. Парк Юрского периода 2: Затерянный мир / The Lost World: Jurassic Park [Фантастика, боевик, триллер, 1997] UHD BDRemux 2160p , Dub [4K] [Лицензия]

salma3

0 | 0

99.71 ГБ

В этой теме нет новых непрочитанных сообщений. Парк Юрского периода 2: Затерянный мир / The Lost World: Jurassic Park [Фантастика, боевик, триллер, 1997] BDRip-HEVC 2160p, Dub

salma3

4 | 9

32.87 ГБ

В этой теме нет новых непрочитанных сообщений. Мир Юрского периода 2 / Jurassic World: Fallen Kingdom [Фантастика, боевик, приключения, 2018] BDRemux 1080p, Dub [Лицензия]

salma3

0 | 0

27.85 ГБ


Начать новую тему Ответить на тему  [ 1 сообщение ] 




Для Мосгорсуда, Роскомнадзора и рекламодателей:: mosgorsud-torrent[собачка]yandex.ru
cron