Торрент файл
скачать торрент магнет ссылка Добавлен: 23 окт 2017, 03:17
Размер: 3.02 ГБ
Сидеров: 21
Личеров: 5
Статус: (salma3)
Автор

СообщениеДобавлено: 23 окт 2017, 03:17 

Не в сети
Супермодератор
Аватара пользователя
Дата регистрации:
15 фев 2012, 16:44
Возраст: 29
Спасибо: 7422 / 2147
Сообщения: 79973
Произведено: США
Категория: комедия
Режиссер постановщик: Зои Листер Джонс

В главных ролях: Джейми Чанг, Бруклин Декер, Колин Хэнкс, Эринн Хэйс, Джесси Уильямс, Зои Листер Джонс, Ханна Саймон, Анжелика Кебрал, Адам Палли, Маджандра Делфино

О фильме:
В центре сюжета — молодая пара, чья жизнь проходит в бесконечных ссорах после того, как они пережили выкидыш. Почти отчаявшись вернуть своё счастье, они решаются на неожиданный шаг и создают рок-группу, выплёскивая все накопившиеся переживания в песни. Возможно, лишь музыка может спасти их брак.



Файл
Качество: BDRip 720p
Видео данные: MKV, 1280x536 (2.40:1), 23.976 fps, 4000 Кбит/с
Аудио данные: Русский (AC3, 2 ch, 640 Кбит/с)
Перевод: Любительский многоголосый (GreenРай Studio)
Продолжительность: 01:34:07

Присутствует реклама!

General
Unique ID : 197340268607562486378240918043006327991 (0x94765A6EE2968E22B5CAE8815CC7DCB7)
Complete name : D:Рабочий столBand.Aid.2017.P.BDRip.720p.mkv
Format : Matroska
Format version : Version 4 / Version 2
File size : 3.02 GiB
Duration : 1 h 34 min
Overall bit rate mode : Constant
Overall bit rate : 4 587 kb/s
Encoded date : UTC 2017-10-22 06:02:15
Writing application : mkvmerge v8.3.0 ('Over the Horizon') 64bit
Writing library : libebml v1.3.1 + libmatroska v1.4.2

Video
ID : 1
Format : AVC
Format/Info : Advanced Video Codec
Format profile : Main@L3.1
Format settings, CABAC : Yes
Format settings, ReFrames : 3 frames
Codec ID : V_MPEG4/ISO/AVC
Duration : 1 h 34 min
Bit rate mode : Constant
Bit rate : 4 000 kb/s
Width : 1 280 pixels
Height : 536 pixels
Display aspect ratio : 2.40:1
Frame rate mode : Constant
Frame rate : 23.976 (23976/1000) FPS
Standard : NTSC
Color space : YUV
Chroma subsampling : 4:2:0
Bit depth : 8 bits
Scan type : Progressive
Bits/(Pixel*Frame) : 0.243
Stream size : 2.60 GiB (86%)
Language : English
Default : Yes
Forced : No
Color range : Limited

Audio
ID : 2
Format : AC-3
Format/Info : Audio Coding 3
Mode extension : CM (complete main)
Format settings, Endianness : Big
Codec ID : A_AC3
Duration : 1 h 34 min
Bit rate mode : Constant
Bit rate : 640 kb/s
Channel(s) : 2 channels
Channel positions : Front: L R
Sampling rate : 48.0 kHz
Frame rate : 31.250 FPS (1536 spf)
Compression mode : Lossy
Stream size : 432 MiB (14%)
Default : Yes
Forced : No


Релиз от:


_________________
Проголосуй за трекер Открытый торрент трекер - RUS-MEDIA.ORG

Проголосуй Открытый торрент трекер - RUS-MEDIA.ORG


Вернуться к началу
 Профиль Отправить личное сообщение  
 
   Похожие торренты   Автор   Торрент   Размер 
В этой теме нет новых непрочитанных сообщений. Группа «Лейкопластырь» / Band Aid [комедия, 2017] HDRip, Mvo

salma3

36 | 7

1.37 ГБ

В этой теме нет новых непрочитанных сообщений. Лига Европы 2017-18 / Группа B. 3-й тур / Динамо К (Украина) – Янг Бойз (Швейцария) / Футбол 1 HD [19.10.2017, HDTVRip (720р)]

salma3

15 | 21

3.1 ГБ

В этой теме нет новых непрочитанных сообщений. Лига Европы 2017-18 / Группа D / 3-й тур / Милан (Италия) - АЕК Афины (Греция) / НТВ+ [Футбол, 19.10.2017, HDTVRip (720р)]

salma3

6 | 6

2.58 ГБ

В этой теме нет новых непрочитанных сообщений. Футбол. Лига чемпионов 2017-18. Групповой турнир. Группа Е. 1-й тур. Шахтер (Украина) – Наполи (Италия) [13.09] (2017) HDTVRip 720р

salma3

69 | 10

3.36 ГБ

В этой теме нет новых непрочитанных сообщений. Футбол. Лига чемпионов 2017-18. Групповой турнир. Группа Е. 1-й тур. Ливерпуль (Англия) – Севилья (Испания) [13.09] (2017) HDTVRip 720р

salma3

55 | 11

3.27 ГБ

В этой теме нет новых непрочитанных сообщений. Футбол. Лига Европы 2017-18. Групповой турнир. Группа L. 1-й тур. Вардар (Македония) – Зенит (Россия) [14.09] (2017) HDTVRip 720р

salma3

50 | 8

2.16 ГБ

В этой теме нет новых непрочитанных сообщений. Лига Чемпионов 2017-18 / Группа Е / 5 тур / Спартак (Россия) - Марибор (Словения) / Матч! Футбол 1 HD [21.11.2017, Футбол, Stream/720р, MKV/H.264, RU]

salma3

0 | 1

1.52 ГБ


Начать новую тему Ответить на тему  [ 1 сообщение ] 




Для Мосгорсуда, Роскомнадзора и рекламодателей:: mosgorsud-torrent[собачка]yandex.ru
cron