Торрент файл
скачать торрент магнет ссылка Добавлен: 05 ноя 2017, 21:45
Размер: 8.86 ГБ
Сидеров: 3
Личеров: 0
Статус: (salma3)
Автор

СообщениеДобавлено: 05 ноя 2017, 21:45 

В сети
Супермодератор
Аватара пользователя
Дата регистрации:
15 фев 2012, 16:44
Возраст: 29
Спасибо: 7428 / 2147
Сообщения: 80047
Год выхода: 1986
Жанр: ужасы, триллер
Режиссер: Джордж Дагдэйл, Марк Эзра, Питер Маккензи Литтен

В ролях: Кэролайн Манро, Саймон Скуддамор, Кармине Яннакконе, Донна Йеджер, Гари Мартин, Билли Хартмен, Майкл Саффран, Джон Сигал, Келли Бэйкер, Сэлли Кросс, ...

О фильме:
В колледже городка Daddsville студенты на день первоапрельского дурака устраивают несколько жестоких розыгрышей, один из которых закачивается трагедией: в результате пожара в химической лаборатории подросток Марти получает серьезные ожоги.
Проходит много лет. Однажды бывшие выпускники школы 1 апреля приглашаются на встречу школьных друзей. Но вскоре молодые люди понимают, что собрали всех их вместе в школе не случайно. Кто-то готовит им страшную месть…



Страна: Великобритания, США
Продолжительность: 01:30:28
Перевод: Профессиональный (двухголосый, закадровый) ТВ3

Кодек: x264
Качество: BDRip 1080p
Видео: 1920x1040, 12300 kbps, 23,976 fps
Аудио #1: AC-3, 2 ch, 192 kbps (Rus) - DVO ТВ3
Аудио #2: AC-3, 2 ch, 1509 kbps (Eng)
Субтитры: английские

Общее
Уникальный идентификатор : 223933679133622357113491709490275826049 (0xA8780ECD4B0AE49DA8BECD1CEAD83981)
Полное имя : Резня в школе (Slaughter High) 1986 BDRip 1080p.mkv
Формат : Matroska
Версия формата : Version 2
Размер файла : 8,86 Гбайт
Продолжительность : 1 ч. 30 м.
Общий поток : 14,0 Мбит/сек
Дата кодирования : UTC 2017-11-05 02:34:10
Программа кодирования : mkvmerge v4.0.0 ('The Stars were mine') сборка от Jun 6 2010 16:18:42
Библиотека кодирования : libebml v1.0.0 + libmatroska v1.0.0

Видео
Идентификатор : 1
Формат : AVC
Формат/Информация : Advanced Video Codec
Профиль формата : High@L4.1
Параметр CABAC формата : Да
Параметр ReFrames формата : 4 кадра
Идентификатор кодека : V_MPEG4/ISO/AVC
Продолжительность : 1 ч. 30 м.
Битрейт : 12,3 Мбит/сек
Ширина : 1920 пикселей
Высота : 1040 пикселей
Соотношение сторон : 1,85:1
Режим частоты кадров : Постоянный
Частота кадров : 23,976 (24000/1001) кадра/сек
Цветовое пространство : YUV
Субдискретизация насыщенности : 4:2:0
Битовая глубина : 8 бит
Тип развёртки : Прогрессивная
Бит/(Пиксели*Кадры) : 0.257
Размер потока : 7,61 Гбайт (86%)
Библиотека кодирования : x264 core 152 r2851 ba24899
Настройки программы : cabac=1 / ref=4 / deblock=1:-3:-3 / analyse=0x3:0x113 / me=umh / subme=8 / psy=1 / psy_rd=1.15:0.00 / mixed_ref=1 / me_range=32 / chroma_me=1 / trellis=2 / 8x8dct=1 / cqm=0 / deadzone=21,11 / fast_pskip=1 / chroma_qp_offset=-2 / threads=24 / lookahead_threads=4 / sliced_threads=0 / nr=0 / decimate=1 / interlaced=0 / bluray_compat=0 / constrained_intra=0 / bframes=3 / b_pyramid=2 / b_adapt=1 / b_bias=0 / direct=3 / weightb=1 / open_gop=0 / weightp=2 / keyint=240 / keyint_min=24 / scenecut=40 / intra_refresh=0 / rc_lookahead=50 / rc=2pass / mbtree=1 / bitrate=12325 / ratetol=1.0 / qcomp=0.60 / qpmin=0 / qpmax=69 / qpstep=4 / cplxblur=20.0 / qblur=0.5 / ip_ratio=1.40 / aq=3:0.75
Язык : English
Default : Нет
Forced : Нет

Аудио #1
Идентификатор : 2
Формат : AC-3
Формат/Информация : Audio Coding 3
Расширение режима : CM (complete main)
Параметр Endianness формата : Big
Идентификатор кодека : A_AC3
Продолжительность : 1 ч. 30 м.
Вид битрейта : Постоянный
Битрейт : 192 Кбит/сек
Каналы : 2 канала
Расположение каналов : Front: L R
Частота : 48,0 КГц
Частота кадров : 31,250 кадров/сек (1536 spf)
Метод сжатия : С потерями
Размер потока : 124 Мбайт (1%)
Заголовок : DVO ТВ3
Язык : Russian
Default : Нет
Forced : Нет

Аудио #2
Идентификатор : 3
Формат : DTS
Формат/Информация : Digital Theater Systems
Режим : 16
Параметр Endianness формата : Big
Идентификатор кодека : A_DTS
Продолжительность : 1 ч. 30 м.
Вид битрейта : Постоянный
Битрейт : 1509 Кбит/сек
Каналы : 2 канала
Расположение каналов : Front: L R
Частота : 48,0 КГц
Частота кадров : 93,750 кадра/сек (512 spf)
Битовая глубина : 24 бит
Метод сжатия : С потерями
Задержка видео : 11 мс.
Размер потока : 977 Мбайт (11%)
Язык : English
Default : Нет
Forced : Нет

Текст #1
Идентификатор : 4
Формат : UTF-8
Идентификатор кодека : S_TEXT/UTF8
Идентификатор кодека/Информация : UTF-8 Plain Text
Язык : English
Default : Нет
Forced : Нет

Текст #2
Идентификатор : 5
Формат : UTF-8
Идентификатор кодека : S_TEXT/UTF8
Идентификатор кодека/Информация : UTF-8 Plain Text
Заголовок : SDH
Язык : English
Default : Нет
Forced : Нет

Меню
00:00:00.000 : en:00:00:00.000
00:08:19.666 : en:00:08:19.666
00:16:39.624 : en:00:16:39.624
00:22:13.457 : en:00:22:13.457
00:28:03.432 : en:00:28:03.432
00:38:36.564 : en:00:38:36.564
00:49:30.384 : en:00:49:30.384
00:53:18.278 : en:00:53:18.278
01:03:41.317 : en:01:03:41.317
01:09:53.856 : en:01:09:53.856
01:16:48.354 : en:01:16:48.354
01:29:03.672 : en:01:29:03.672



_________________
Проголосуй за трекер Открытый торрент трекер - RUS-MEDIA.ORG

Проголосуй Открытый торрент трекер - RUS-MEDIA.ORG


Вернуться к началу
 Профиль Отправить личное сообщение  
 
   Похожие торренты   Автор   Торрент   Размер 
В этой теме нет новых непрочитанных сообщений. Резня в школе / Slaughter High [ужасы, комедия, 1986] BDRip-AVC, Dvo

salma3

10 | 1

1.45 ГБ

В этой теме нет новых непрочитанных сообщений. Резня в школе / Slaughter High [ужасы, комедия, 1986] HDRip-AVC, Dvo [ТВ3]

salma3

35 | 2

745.77 МБ

В этой теме нет новых непрочитанных сообщений. Учитель и чудовища / Беспредел в средней школе / High School High [Комедия, криминал, мелодрама, 1996] WEB-DL 1080p, Mvo

salma3

0 | 1

8.97 ГБ

В этой теме нет новых непрочитанных сообщений. Техасская резня бензопилой 2 / The Texas Chainsaw Massacre 2 [ужасы, комедия, 1986] BDRip 720p, Dvo+Sub

salma3

0 | 0

11.71 ГБ

В этой теме нет новых непрочитанных сообщений. Техасская резня бензопилой: Кожаное лицо / Leatherface [Ужасы, триллер, 2017] BDRip 1080p, Dub [iTunes]

salma3

109 | 15

8.98 ГБ

В этой теме нет новых непрочитанных сообщений. Техасская резня бензопилой 3: Кожаное лицо / Leatherface: Texas Chainsaw Massacre III [ужасы, триллер, 1990] BDRip 1080p, Mvo [Unrated]

salma3

0 | 0

8.78 ГБ

В этой теме нет новых непрочитанных сообщений. Избиение младенцев / Slaughter of the Innocents [ужасы, триллер, криминал, детектив, 1993] BDRip 720p, Avo

salma3

32 | 7

6.19 ГБ


Начать новую тему Ответить на тему  [ 1 сообщение ] 




Для Мосгорсуда, Роскомнадзора и рекламодателей:: mosgorsud-torrent[собачка]yandex.ru
cron