Торрент файл
скачать торрент магнет ссылка Добавлен: 08 ноя 2017, 03:26
Размер: 18.12 ГБ
Сидеров: 8
Личеров: 3
Статус: (salma3)
Автор

СообщениеДобавлено: 08 ноя 2017, 03:26 

Не в сети
Супермодератор
Аватара пользователя
Дата регистрации:
15 фев 2012, 16:44
Возраст: 29
Спасибо: 7421 / 2147
Сообщения: 79842
Год выпуска: 1976
Жанр: Триллер, драма, криминал
Выпущено: Франция
Режиссер: Анри Верней / Henri Verneuil

В ролях: Жан-Поль Бельмондо, Бернар Блие, Мари-Франс Пизье, Шарль Жерар,
Даниэль Ивернель, Клод Броссет, Мишель Бон, Франсуа Перро, Рене Лефевр, Николь Гарсиа,
Ивонн Годо, Сюзи Прим

О фильме: Франсуа Леклер всегда презирал тех, в чьих руках был его родной городок, так называемую элиту общества.
Но однажды он влюбляется в наследницу семейства Жильбер. В свое время он всенепременно женился бы на ней. Однако теперь, десять лет спустя, их "объединяет" только ненависть. Дело в том, что Франсуа "плодотворно" провел это время в тюрьме из-за ложного обвинения в убийстве. И теперь, выйдя на свободу, он хочет узнать причину своего многолетнего заточения.
Леклер начинает собственное расследование и возвращается к тем людям, с которыми когда-то дружил и общался. Но чем дальше он продвигается в этом деле, тем больше понимает, что все нити ведут к семейству Жилбер.



Продолжительность: 02:01:17
Перевод: Профессиональный (многоголосый закадровый) Останкино

Кодек: х264
Качество: BDRip 1080р
Видео: MPEG-4 AVC Video; 21000 kbps; 1800х1080; 24 fps; 16:9; High Profile 4.1
Аудио #1: Russian: AC3; 48.0 KHz; 2ch; 192 Kbps
Аудио #2: French: AC3; 48.0 KHz; 1ch; 192 Kbps

x264 [info]: frame I:911 Avg QP:17.63 size:414641
x264 [info]: frame P:33946 Avg QP:20.94 size:206560
x264 [info]: frame B:139803 Avg QP:23.14 size: 83788

Общее
Уникальный идентификатор : 202576188350209276230392056187853842711 (0x9866C13517379E2C98400E2F9A5DA917)
Полное имя : E:Мои рипыТруп моего врага 1976_BDRip 1080р_KORSAR.mkv
Формат : Matroska
Версия формата : Version 2
Размер файла : 18,1 Гбайт
Продолжительность : 2 ч. 1 м.
Общий поток : 21,4 Мбит/сек
Дата кодирования : UTC 2017-11-07 10:38:45
Программа кодирования : mkvmerge v5.8.0 ('No Sleep / Pillow') built on Sep 2 2012 15:37:04
Библиотека кодирования : libebml v1.2.3 + libmatroska v1.3.0

Видео
Идентификатор : 1
Формат : AVC
Формат/Информация : Advanced Video Codec
Профиль формата : High@L4.1
Настройки формата : CABAC / 4 Ref Frames
Параметр CABAC формата : Да
Параметр RefFrames формата : 4 кадра
Идентификатор кодека : V_MPEG4/ISO/AVC
Продолжительность : 2 ч. 1 м.
Битрейт : 21,0 Мбит/сек
Ширина : 1800 пикселей
Высота : 1080 пикселей
Соотношение сторон : 5:3
Режим частоты кадров : Постоянный
Частота кадров : 24,000 кадра/сек
Цветовое пространство : YUV
Субдискретизация насыщенности : 4:2:0
Битовая глубина : 8 бит
Тип развёртки : Прогрессивная
Бит/(Пиксели*Кадры) : 0.450
Размер потока : 17,4 Гбайт (96%)
Библиотека кодирования : x264 core 152 r2851kMod ba24899
Настройки программы : cabac=1 / ref=4 / deblock=1:-2:-2 / analyse=0x3:0x113 / me=umh / subme=11 / psy=1 / fade_compensate=0.00 / psy_rd=0.80:0.05 / mixed_ref=1 / me_range=48 / chroma_me=1 / trellis=2 / 8x8dct=1 / cqm=0 / deadzone=21,11 / fast_pskip=0 / chroma_qp_offset=-3 / threads=12 / lookahead_threads=3 / sliced_threads=0 / nr=0 / decimate=0 / interlaced=0 / bluray_compat=0 / constrained_intra=0 / bframes=14 / b_pyramid=2 / b_adapt=2 / b_bias=0 / direct=3 / weightb=1 / open_gop=0 / weightp=2 / keyint=250 / keyint_min=24 / scenecut=40 / intra_refresh=0 / rc_lookahead=40 / rc=2pass / mbtree=0 / bitrate=21000 / ratetol=1.0 / qcomp=0.60 / qpmin=0 / qpmax=39 / qpstep=4 / cplxblur=20.0 / qblur=0.5 / vbv_maxrate=50000 / vbv_bufsize=62500 / nal_hrd=none / filler=0 / ip_ratio=1.40 / pb_ratio=1.30 / aq=2:0.70
Язык : English
Default : Да
Forced : Нет
Цветовой диапазон : Limited
Основные цвета : BT.709
Характеристики трансфера : BT.709
Коэффициенты матрицы : BT.709

Аудио #1
Идентификатор : 2
Формат : AC-3
Формат/Информация : Audio Coding 3
Параметр Endianness формата : Big
Идентификатор кодека : A_AC3
Продолжительность : 2 ч. 1 м.
Вид битрейта : Постоянный
Битрейт : 192 Кбит/сек
Каналы : 2 канала
Расположение каналов : Front: L R
Частота : 48,0 КГц
Частота кадров : 31,250 кадров/сек (1536 SPF)
Битовая глубина : 16 бит
Метод сжатия : С потерями
Размер потока : 167 Мбайт (1%)

Default : Да
Forced : Нет

Аудио #2
Идентификатор : 3
Формат : AC-3
Формат/Информация : Audio Coding 3
Параметр Endianness формата : Big
Идентификатор кодека : A_AC3
Продолжительность : 2 ч. 1 м.
Вид битрейта : Постоянный
Битрейт : 192 Кбит/сек
Каналы : 2 канала
Расположение каналов : Front: L R
Частота : 48,0 КГц
Частота кадров : 31,250 кадров/сек (1536 SPF)
Битовая глубина : 16 бит
Метод сжатия : С потерями
Размер потока : 167 Мбайт (1%)
Заголовок : original
Язык : French

Default : Нет
Forced : Нет
Statistics Tags Issue : mkvmerge v8.2.0 ('World of Adventure') 64bit 2016-09-29 00:40:37 / mkvmerge v5.8.0 ('No Sleep / Pillow') built on Sep 2 2012 15:37:04 2017-11-07 10:38:45
FromStats_BitRate : 192000
FromStats_Duration : 02:01:17.504000000
FromStats_FrameCount : 227422
FromStats_StreamSize : 174660096





_________________
Проголосуй за трекер Открытый торрент трекер - RUS-MEDIA.ORG

Проголосуй Открытый торрент трекер - RUS-MEDIA.ORG


Вернуться к началу
 Профиль Отправить личное сообщение  
 
   Похожие торренты   Автор   Торрент   Размер 
В этой теме нет новых непрочитанных сообщений. Труп моего врага / Le corps de mon ennemi [триллер, драма, криминал, детектив, 1976] BDRip 720p, Mvo

salma3

51 | 9

5.11 ГБ

В этой теме нет новых непрочитанных сообщений. Враг общества / Ennemi public [S01] [криминал, детектив, триллер, 2016] BDRip, Dvo [ViruseProject]

salma3

73 | 20

8.72 ГБ

В этой теме нет новых непрочитанных сообщений. Таксист / Taxi Driver [триллер, драма, криминал, 1976] BDRip-HEVC 1080p, Mvo [4K Remastered]

salma3

0 | 0

8.25 ГБ

В этой теме нет новых непрочитанных сообщений. Семейный заговор / Family Plot [Триллер, комедия, криминал, 1976] BDRip 1080p, Dub

salma3

4 | 6

9.88 ГБ

В этой теме нет новых непрочитанных сообщений. Мсье Кляйн / Mr. Klein [триллер, драма, криминал, 1976] BDRip, Dvo

salma3

0 | 0

2.18 ГБ

В этой теме нет новых непрочитанных сообщений. Таксист / Taxi Driver [триллер, драма, криминал, 1976] Blu-ray 1080p, Dvo

salma3

32 | 42

44.48 ГБ

В этой теме нет новых непрочитанных сообщений. Panzer Corps: U.S. Corps '42 [TBS, Wargame, 2016] [RePack]

Sykre

461 | 19

1.27 ГБ


Начать новую тему Ответить на тему  [ 1 сообщение ] 




Для Мосгорсуда, Роскомнадзора и рекламодателей:: mosgorsud-torrent[собачка]yandex.ru
cron