Торрент файл
скачать торрент магнет ссылка Добавлен: 08 ноя 2017, 21:34
Размер: 3.63 ГБ
Сидеров: 17
Личеров: 1
Статус: (salma3)
Автор

СообщениеДобавлено: 08 ноя 2017, 21:34 

Не в сети
Супермодератор
Аватара пользователя
Дата регистрации:
15 фев 2012, 16:44
Возраст: 29
Спасибо: 7428 / 2147
Сообщения: 80130
Год выхода: 2016
Жанр: Триллер, драма, криминал
Режиссер: Дэвид Гульельмо

В ролях: Фрея Тингли, Том Уильямсон, Пол Рэй, Тимоти В. Мерфи, Джастин Арнольд, Райан Харпер Грэй, Рой Фрамкес, Рой Аллен III, Жослин Андерсон, Симон Бэйкер и другие

О фильме:
Эта история разворачивается в 50-х годах. Межрассовая пара подростков совершают грабёж и сбегают из свого гнетущего города. Но все обернулось так, что они вынужены встретиться лицом к лицу со своими тёмными секретами.



Страна: США, Modernciné
Продолжительность: 01:25:20
Перевод: Любительский (двухголосый закадровый) | RecentFilms

Файл
Кодек: MPEG-4 AVC/H.264
Качество: WEBRip 1080p
Видео: 1920x800, 23,976 fps, ~5899 Kbps, 0.160 bit/pixel
Аудио rus: AC3, 48 kHz, 2 ch, 192 Kbps

Реклама: присутствует

Семпл

General
Unique ID : 220719116759130646545180868221248846715 (0xA60CF4A3F064ECBBA40B7EB21C55BB7B)
Complete name : F:FilmsNo.Way.to.Live.2016.1080p.WEBRip.RecentFilmsNo.Way.to.Live.2016.1080p.WEBRip.RecentFilms.mkv
Format : Matroska
Format version : Version 4 / Version 2
File size : 3.63 GiB
Duration : 1h 25mn
Overall bit rate : 6 087 Kbps
Encoded date : UTC 2017-11-08 12:48:19
Writing application : mkvmerge v17.0.0 ('Be Ur Friend') 64-bit
Writing library : libebml v1.3.5 + libmatroska v1.4.8

Video
ID : 1
Format : AVC
Format/Info : Advanced Video Codec
Format profile : High@L4
Format settings, CABAC : No
Format settings, ReFrames : 1 frame
Codec ID : V_MPEG4/ISO/AVC
Duration : 1h 25mn
Bit rate : 5 899 Kbps
Width : 1 920 pixels
Height : 800 pixels
Display aspect ratio : 2.40:1
Frame rate mode : Constant
Frame rate : 23.976 (24000/1001) fps
Original frame rate : 23.976 (23976/1000) fps
Color space : YUV
Chroma subsampling : 4:2:0
Bit depth : 8 bits
Scan type : Progressive
Bits/(Pixel*Frame) : 0.160
Stream size : 3.51 GiB (97%)
Writing library : x264 core 148 r2665 a01e339
Encoding settings : cabac=0 / ref=1 / deblock=1:0:0 / analyse=0x3:0x113 / me=hex / subme=7 / psy=1 / psy_rd=1.00:0.00 / mixed_ref=0 / me_range=16 / chroma_me=1 / trellis=1 / 8x8dct=1 / cqm=0 / deadzone=21,11 / fast_pskip=1 / chroma_qp_offset=-2 / threads=12 / lookahead_threads=2 / sliced_threads=0 / nr=0 / decimate=1 / interlaced=0 / bluray_compat=0 / constrained_intra=0 / bframes=0 / weightp=2 / keyint=250 / keyint_min=23 / scenecut=40 / intra_refresh=0 / rc_lookahead=40 / rc=abr / mbtree=1 / bitrate=5899 / ratetol=1.0 / qcomp=0.60 / qpmin=0 / qpmax=69 / qpstep=4 / ip_ratio=1.40 / aq=1:1.00
Default : Yes
Forced : No

Audio
ID : 2
Format : AC-3
Format/Info : Audio Coding 3
Mode extension : CM (complete main)
Format settings, Endianness : Big
Codec ID : A_AC3
Duration : 1h 25mn
Bit rate mode : Constant
Bit rate : 192 Kbps
Channel(s) : 2 channels
Channel positions : Front: L R
Sampling rate : 48.0 KHz
Frame rate : 31.250 fps (1536 spf)
Compression mode : Lossy
Stream size : 117 MiB (3%)
Default : Yes
Forced : No



Релиз от: RecentFilms


_________________
Проголосуй за трекер Открытый торрент трекер - RUS-MEDIA.ORG

Проголосуй Открытый торрент трекер - RUS-MEDIA.ORG


Вернуться к началу
 Профиль Отправить личное сообщение  
 
   Похожие торренты   Автор   Торрент   Размер 
В этой теме нет новых непрочитанных сообщений. Так жить нельзя / No Way to Live [Триллер, драма, криминал, 2016] WEBRip, Dvo

salma3

0 | 0

1.19 ГБ

В этой теме нет новых непрочитанных сообщений. Жить и умереть в Лос-Анджелесе / To Live and Die in L.A. [боевик, триллер, драма, криминал, 1985] BDRip 1080p, Mvo

salma3

49 | 13

12.39 ГБ

В этой теме нет новых непрочитанных сообщений. Смертельное оружие / Lethal Weapon [01х01-01 из 13] [боевик, триллер, драма, криминал, 2016] WEBRip 1080p, Mvo [LostFilm]

marya111

0 | 0

3.93 ГБ

В этой теме нет новых непрочитанных сообщений. Закон ночи / Live by Night [драма, криминал, 2016] Blu-ray 1080p, Dub+Sub [Лицензия]

salma3

68 | 73

41.95 ГБ

В этой теме нет новых непрочитанных сообщений. Закон ночи / Live by Night [Драма, криминал, 2016] BDRip 1080p, Dub+Sub [Лицензия]

salma3

38 | 17

15.11 ГБ

В этой теме нет новых непрочитанных сообщений. Не дыши / Don't Breathe [ужасы, триллер, криминал, 2016] WEBRip 1080p, Dub [чистый звук]

salma3

3211 | 914

3.14 ГБ

В этой теме нет новых непрочитанных сообщений. Живой груз / Live Cargo [Триллер, драма, 2016] WEB-DLRip 1080p, Mvo

salma3

143 | 75

3.21 ГБ


Начать новую тему Ответить на тему  [ 1 сообщение ] 




Для Мосгорсуда, Роскомнадзора и рекламодателей:: mosgorsud-torrent[собачка]yandex.ru
cron