Торрент файл
скачать торрент магнет ссылка Добавлен: 18 ноя 2017, 12:05
Размер: 42.18 ГБ
Сидеров: 0
Личеров: 7
Статус: (salma3)
Автор

СообщениеДобавлено: 18 ноя 2017, 12:05 

Не в сети
Супермодератор
Аватара пользователя
Дата регистрации:
15 фев 2012, 16:44
Возраст: 29
Спасибо: 7422 / 2147
Сообщения: 79973
Год выхода: 1995
Жанр: Драма, мелодрама, криминал
Режиссер: Пол Верховен

В ролях: Элизабет Беркли, Джина Гершон, Кайл МакЛахлан, Роберт Дави, Гленн Пламмер, Алан Рачинс, Джина Равера, Лин Туччи, Грег Трэвис, Аль Руссо, Патрик Бристоу, Уильям Шокли, Рена Риффел, Мишель Джонстон, Дьюи Вебер, Мелисса Уильямс, Лэнс Дэвис, Джим Ишида, Бобби Филлипс, Джоан Фоли, Терри Биман, Кевин Александр Сти, Лиза Бойл

О фильме:
Молодая танцовщица Номи отчаянно пытается добиться успеха в Лас-Вегасе и проникнуть в блистающий мир ярких огней, блеска и света шоу — сцены. Чтобы удержаться «на плаву», она соглашается на единственно возможную работу — стриптиз, пока ей не удается вытянуть свой счастливый билет — познакомиться с королевой сцены Лас-Вегаса Кристал. Используя свое влияние, Кристал устраивает Номи в свое шоу и вводит ее в истинный мир шоу-бизнеса Лас-Вегаса — мир случая, предательства и интриг, в котором сексуальность можно использовать как власть.



Страна: США, Франция
Продолжительность: 02:11:22
Перевод: Дублированный, профессиональный многоголосый, авторский

Файл
Кодек: MPEG-4 AVC
Качество: BDRemux 1080p
Видео: 34458 Кбит/с, 1920x1080, 23.976 кадр/с
Аудио 1: Английский / DTS-HD Master Audio 5.1 / 48 kHz / 4466 kbps / 24-bit (DTS Core: 5.1 / 48 kHz / 1509 kbps / 24-bit) - Оригинал
Аудио 2: Русский / AC3; 6ch; 448 kbps; 48Hz - Дубляж (Нева 1)
Аудио 3: Русский / AC3; 2ch; 192 kbps; 48Hz - Дубляж
Аудио 4: Русский / DTS-HD Master Audio 5.1 / 48 kHz / 4469 kbps / 24-bit (DTS Core: 5.1 / 48 kHz / 1509 kbps / 24-bit) - Профессиональный многоголосый (CP Digital)
Аудио 5: Русский / AC3; 2ch; 192 kbps; 48Hz - Профессиональный многоголосый (СТС)
Аудио 6: Русский / AC3; 6ch; 448 kbps; 48Hz - Автоский (Гаврилов)
Аудио 7: Русский / DTS; 6ch; 1509kbps; 48 Hz - Авторский (Живов)
Субтитры: Русские, английские
Главы: Есть


Общее
Уникальный идентификатор : 173040167858105058263612860102875609804 (0x822E52F74C5A12AC81462731F9E4FACC)
Полное имя : D:\РЕМУКС\Шоугёлз.BDRemux..mkv
Формат : Matroska
Версия формата : Version 2
Размер файла : 41,1 Гбайт
Продолжительность : 2 ч. 11 м.
Режим общего битрейта : Переменный
Общий поток : 44,8 Мбит/сек
Дата кодирования : UTC 2015-06-10 09:34:58
Программа кодирования : mkvmerge v5.0.1 ('Es ist Sommer') built on Oct 9 2011 11:55:43
Библиотека кодирования : libebml v1.2.2 + libmatroska v1.3.0

Видео
Идентификатор : 1
Формат : AVC
Формат/Информация : Advanced Video Codec
Профиль формата : High@L4.1
Параметр CABAC формата : Да
Параметр ReFrames формата : 4 кадра
Идентификатор кодека : V_MPEG4/ISO/AVC
Продолжительность : 2 ч. 11 м.
Вид битрейта : Переменный
Максимальный битрейт : 39,0 Мбит/сек
Ширина : 1920 пикселей
Высота : 1080 пикселей
Соотношение сторон : 16:9
Режим частоты кадров : Постоянный
Частота кадров : 23,976 кадра/сек
Цветовое пространство : YUV
Субдискретизация насыщенности : 4:2:0
Битовая глубина : 8 бит
Тип развёртки : Прогрессивная
Default : Да
Forced : Нет
Основные цвета : BT.709
Характеристики трансфера : BT.709
Коэффициенты матрицы : BT.709

Аудио #1
Идентификатор : 2
Формат : DTS
Формат/Информация : Digital Theater Systems
Профиль формата : MA / Core
Режим : 16
Параметр Endianness формата : Big
Идентификатор кодека : A_DTS
Продолжительность : 2 ч. 11 м.
Вид битрейта : Переменный
Битрейт : Неизвестно / 1509 Кбит/сек
Каналы : 6 каналов
Расположение каналов : Front: L C R, Side: L R, LFE
Частота : 48,0 КГц
Битовая глубина : 24 бит
Метод сжатия : Без потерь / Lossy
Заголовок : Russian / DTS-HD MА / 4469 kbps- ПМ
Язык : Russian
Default : Да
Forced : Нет

Аудио #2
Идентификатор : 3
Формат : DTS
Формат/Информация : Digital Theater Systems
Профиль формата : MA / Core
Режим : 16
Параметр Endianness формата : Big
Идентификатор кодека : A_DTS
Продолжительность : 2 ч. 11 м.
Вид битрейта : Переменный
Битрейт : Неизвестно / 1509 Кбит/сек
Каналы : 6 каналов
Расположение каналов : Front: L C R, Side: L R, LFE
Частота : 48,0 КГц
Битовая глубина : 24 бит
Метод сжатия : Без потерь / Lossy
Заголовок : English / DTS-HD MА/ 4466 kbps- оригинал
Язык : English
Default : Нет
Forced : Нет

Аудио #3
Идентификатор : 4
Формат : AC-3
Формат/Информация : Audio Coding 3
Расширение режима : CM (complete main)
Параметр Endianness формата : Big
Идентификатор кодека : A_AC3
Продолжительность : 2 ч. 11 м.
Вид битрейта : Постоянный
Битрейт : 448 Кбит/сек
Каналы : 6 каналов
Расположение каналов : Front: L C R, Side: L R, LFE
Частота : 48,0 КГц
Битовая глубина : 16 бит
Метод сжатия : С потерями
Размер потока : 421 Мбайт (1%)
Заголовок : Russian; AC3; 6ch; 448 kbps; 48Hz; Дубляж
Язык : Russian
Default : Нет
Forced : Нет

Аудио #4
Идентификатор : 5
Формат : AC-3
Формат/Информация : Audio Coding 3
Расширение режима : CM (complete main)
Параметр Endianness формата : Big
Идентификатор кодека : A_AC3
Продолжительность : 2 ч. 11 м.
Вид битрейта : Постоянный
Битрейт : 448 Кбит/сек
Каналы : 6 каналов
Расположение каналов : Front: L C R, Side: L R, LFE
Частота : 48,0 КГц
Битовая глубина : 16 бит
Метод сжатия : С потерями
Размер потока : 421 Мбайт (1%)
Заголовок : Russian; AC3; 6ch; 448 kbps; 48Hz; ПМ
Язык : Russian
Default : Нет
Forced : Нет

Аудио #5
Идентификатор : 6
Формат : AC-3
Формат/Информация : Audio Coding 3
Расширение режима : CM (complete main)
Параметр Endianness формата : Big
Идентификатор кодека : A_AC3
Продолжительность : 2 ч. 11 м.
Вид битрейта : Постоянный
Битрейт : 448 Кбит/сек
Каналы : 6 каналов
Расположение каналов : Front: L C R, Side: L R, LFE
Частота : 48,0 КГц
Битовая глубина : 16 бит
Метод сжатия : С потерями
Размер потока : 421 Мбайт (1%)
Заголовок : Russian; AC3; 6ch; 448 kbps; 48Hz; АП Гаврилов
Язык : Russian
Default : Нет
Forced : Нет

Аудио #6
Идентификатор : 7
Формат : AC-3
Формат/Информация : Audio Coding 3
Расширение режима : CM (complete main)
Параметр Endianness формата : Big
Идентификатор кодека : A_AC3
Продолжительность : 2 ч. 11 м.
Вид битрейта : Постоянный
Битрейт : 256 Кбит/сек
Каналы : 2 канала
Расположение каналов : Front: L R
Частота : 48,0 КГц
Битовая глубина : 16 бит
Метод сжатия : С потерями
Размер потока : 241 Мбайт (1%)
Заголовок : Russian; AC3; 2ch; 256 kbps; 48Hz; АП Живов
Язык : Russian
Default : Нет
Forced : Нет

Текст #1
Идентификатор : 8
Формат : PGS
Режим смешивания : zlib
Идентификатор кодека : S_HDMV/PGS
Идентификатор кодека/Информация : The same subtitle format used on BDs/HD-DVDs
Язык : Russian
Default : Да
Forced : Нет

Текст #2
Идентификатор : 9
Формат : PGS
Режим смешивания : zlib
Идентификатор кодека : S_HDMV/PGS
Идентификатор кодека/Информация : The same subtitle format used on BDs/HD-DVDs
Язык : English
Default : Нет
Forced : Нет

Меню
00:00:00.000 : :Chapter 01
00:03:20.450 : :Chapter 02
00:08:11.741 : :Chapter 03
00:12:20.655 : :Chapter 04
00:16:04.546 : :Chapter 05
00:19:43.182 : :Chapter 06
00:22:43.487 : :Chapter 07
00:26:14.906 : :Chapter 08
00:34:09.839 : :Chapter 09
00:36:09.583 : :Chapter 10
00:38:00.444 : :Chapter 11
00:43:55.841 : :Chapter 12
00:49:31.510 : :Chapter 13
00:53:04.264 : :Chapter 14
00:56:31.971 : :Chapter 15
00:58:26.002 : :Chapter 16
01:02:43.593 : :Chapter 17
01:04:48.968 : :Chapter 18
01:11:37.835 : :Chapter 19
01:18:16.191 : :Chapter 20
01:23:07.607 : :Chapter 21
01:29:28.279 : :Chapter 22
01:31:26.564 : :Chapter 23
01:37:24.296 : :Chapter 24
01:38:49.006 : :Chapter 25
01:42:37.734 : :Chapter 26
01:45:35.120 : :Chapter 27
01:46:59.787 : :Chapter 28
01:52:38.376 : :Chapter 29
01:55:46.814 : :Chapter 30
01:58:49.455 : :Chapter 31
02:03:39.412 : :Chapter 32
02:11:22.082 : :Chapter 33



_________________
Проголосуй за трекер Открытый торрент трекер - RUS-MEDIA.ORG

Проголосуй Открытый торрент трекер - RUS-MEDIA.ORG


Вернуться к началу
 Профиль Отправить личное сообщение  
 
   Похожие торренты   Автор   Торрент   Размер 
В этой теме нет новых непрочитанных сообщений. Шоугелз / Showgirls [Драма, 1995] BDRip 1080p, Dub

salma3

0 | 0

19.28 ГБ

В этой теме нет новых непрочитанных сообщений. Шоугелз / Showgirls [драма, 1995] HDRip, Dub

salma3

10 | 12

1.45 ГБ

В этой теме нет новых непрочитанных сообщений. Шоугелз / Showgirls [Драма, 1995] BDRip 720p, Dub

salma3

0 | 1

12.58 ГБ

В этой теме нет новых непрочитанных сообщений. Сабрина / Sabrina [Драма, мелодрама, комедия, 1995] BDRemux 1080p, Mvo

salma3

12 | 16

31.75 ГБ

В этой теме нет новых непрочитанных сообщений. Первый рыцарь / First Knight [Мелодрама, приключения, драма, 1995] BDRemux 1080p, Dub

salma3

3 | 2

28.11 ГБ

В этой теме нет новых непрочитанных сообщений. Пока ты спал / While You Were Sleeping [драма, мелодрама, комедия, 1995] BDRemux 1080p, Mvo

salma3

0 | 0

35.11 ГБ

В этой теме нет новых непрочитанных сообщений. Семь / Se7en [Триллер, драма, криминал, 1995] BDRemux 1080p, Mvo [Remastered Edition]

salma3

50 | 53

53.59 ГБ


Начать новую тему Ответить на тему  [ 1 сообщение ] 




Для Мосгорсуда, Роскомнадзора и рекламодателей:: mosgorsud-torrent[собачка]yandex.ru
cron