Торрент файл
скачать торрент магнет ссылка Добавлен: 21 ноя 2017, 21:45
Размер: 9.03 ГБ
Сидеров: 7
Личеров: 2
Статус: (salma3)
Автор

СообщениеДобавлено: 21 ноя 2017, 21:45 

Не в сети
Супермодератор
Аватара пользователя
Дата регистрации:
15 фев 2012, 16:44
Возраст: 29
Спасибо: 7401 / 2147
Сообщения: 78470
✧ Год выхода: 1979
Жанр: триллер, драма, криминал
✧ Выпущено: США, Columbia Pictures Corporation
✧ Продолжительность: 01:59:04
✧ Перевод: Дублированный, профессиональный многоголосый, профессиональный двухголосый, авторский одноголосый
✧ Режиссер: Норман Джуисон
✧ В ролях: Аль Пачино, Джек Уорден, Джон Форсайт, Джеффри Тэмбор, Ли Страсберг, Кристин Лати, Крэйг Т. Нельсон, Сэм Ливин, Томас Дж. Уэйтс, Доминик Кьянезе
✧ О фильме:
Правосудие бесплатное, просто судьи нынче дорогие… В этом не раз успел убедиться адвокат-идеалист Артур Кёрклэнд, который настойчиво борется за справедливость и "правосудие для всех". К сожалению, его усилия оказываются напрасными. Из-за юридической формальности садится в тюрьму невиновный человек, другой клиент героя по уши вязнет в сфабрикованном против него деле. В довершение ко всему, именно Артуру выпадает неприятный долг защищать судью Флеминга от обвинений в изнасиловании. Это дело он и рад был бы проиграть, но, провалив защиту, герой изменил бы своим принципам. Однако, его принципиальность очень скоро начинает трещать по швам, когда Кёрклэнд узнает, что Флеминг виновен как сам грех!


Файл
✧ Качество: BDRip 720p
✧ Видео: MPEG4 AVC, 1280x720 (16:9), 23.976 fps, 8597 kbps, 0.389 bpp
✧ Аудио 1: Russian: 48 kHz, AC3, 2.0 ch, 192 kbps - DUB, СССР
✧ Аудио 2: Russian: 48 kHz, AC3, 2.0 ch, 192 kbps - MVO, R5
✧ Аудио 3: Russian: 48 kHz, AC3, 2.0 ch, 192 kbps - DVO
✧ Аудио 4: Russian: 48 kHz, AC3, 5.1 ch, 640 kbps - AVO, М. Иванов
✧ Аудио 5: English: 48 kHz, AC3, 5.1 ch, 640 kbps - Оригинал
✧ Аудио 6: English: 48 kHz, AC3, 2.0 ch, 192 kbps - Commentary
✧ Субтитры: Русские, английские
✧ Навигация по главам: есть

• Дублированный перевод со вставками профессионального двухголосого


Общее
Уникальный идентификатор : 249687740744871023505664711958446464815 (0xBBD81C12FC43FAD3AEA13A355CCBDF2F)
Полное имя : And.Justice.for.All.1979.720p.BluRay.x264.AC3.Rus.Eng.mkv
Формат : Matroska
Версия формата : Version 2
Размер файла : 9,03 Гбайт
Продолжительность : 1 ч. 59 м.
Общий поток : 10,9 Мбит/сек
Название фильма : And.Justice.for.All.1979.720p.BluRay.x264.AC3.Rus.Eng
Дата кодирования : UTC 2012-01-08 10:09:05
Программа кодирования : mkvmerge v5.1.0 ('And so it goes') built on Nov 28 2011 23:58:28
Библиотека кодирования : libebml v1.2.3 + libmatroska v1.3.0

Видео
Идентификатор : 1
Формат : AVC
Формат/Информация : Advanced Video Codec
Профиль формата : High@L4.1
Параметр CABAC формата : Да
Параметр RefFrames формата : 8 кадров
Идентификатор кодека : V_MPEG4/ISO/AVC
Продолжительность : 1 ч. 59 м.
Битрейт : 8597 Кбит/сек
Ширина : 1280 пикселей
Высота : 720 пикселей
Соотношение сторон : 16:9
Режим частоты кадров : Постоянный
Частота кадров : 23,976 (24000/1001) кадра/сек
Цветовое пространство : YUV
Субдискретизация насыщенности : 4:2:0
Битовая глубина : 8 бит
Тип развёртки : Прогрессивная
Бит/(Пиксели*Кадры) : 0.389
Размер потока : 7,15 Гбайт (79%)
Заголовок : Правосудие для всех (1979)
Библиотека кодирования : x264 core 120 r2120kMod 0c7dab9
Настройки программы : cabac=1 / ref=8 / deblock=1:-3:-2 / analyse=0x3:0x113 / me=esa / subme=11 / psy=1 / fade_compensate=0.00 / psy_rd=0.95:0.00 / mixed_ref=1 / me_range=32 / chroma_me=1 / trellis=2 / 8x8dct=1 / cqm=0 / deadzone=21,11 / fast_pskip=1 / chroma_qp_offset=-2 / threads=6 / sliced_threads=0 / nr=0 / decimate=1 / interlaced=0 / bluray_compat=0 / constrained_intra=0 / bframes=9 / b_pyramid=2 / b_adapt=2 / b_bias=0 / direct=1 / weightb=1 / open_gop=0 / weightp=2 / keyint=250 / keyint_min=23 / scenecut=40 / intra_refresh=0 / rc_lookahead=40 / rc=crf / mbtree=0 / crf=19.0000 / qcomp=0.65 / qpmin=0 / qpmax=69 / qpstep=4 / vbv_maxrate=50000 / vbv_bufsize=62500 / crf_max=0.0 / nal_hrd=none / ip_ratio=1.40 / pb_ratio=1.20 / aq=2:0.75
Язык : English
Default : Нет
Forced : Нет
Цветовой диапазон : Limited
Коэффициенты матрицы : BT.709

Аудио #1
Идентификатор : 2
Формат : AC-3
Формат/Информация : Audio Coding 3
Параметр Endianness формата : Big
Идентификатор кодека : A_AC3
Продолжительность : 1 ч. 59 м.
Вид битрейта : Постоянный
Битрейт : 192 Кбит/сек
Каналы : 2 канала
Расположение каналов : Front: L R
Частота : 48,0 КГц
Частота кадров : 31,250 кадров/сек (1536 SPF)
Битовая глубина : 16 бит
Метод сжатия : С потерями
Размер потока : 164 Мбайт (2%)
Заголовок : Dub USSR
Язык : Russian
Default : Да
Forced : Нет

Аудио #2
Идентификатор : 3
Формат : AC-3
Формат/Информация : Audio Coding 3
Параметр Endianness формата : Big
Идентификатор кодека : A_AC3
Продолжительность : 1 ч. 59 м.
Вид битрейта : Постоянный
Битрейт : 192 Кбит/сек
Каналы : 2 канала
Расположение каналов : Front: L R
Частота : 48,0 КГц
Частота кадров : 31,250 кадров/сек (1536 SPF)
Битовая глубина : 16 бит
Метод сжатия : С потерями
Размер потока : 164 Мбайт (2%)
Заголовок : MVO R5
Язык : Russian
Default : Нет
Forced : Нет

Аудио #3
Идентификатор : 4
Формат : AC-3
Формат/Информация : Audio Coding 3
Параметр Endianness формата : Big
Идентификатор кодека : A_AC3
Продолжительность : 1 ч. 59 м.
Вид битрейта : Постоянный
Битрейт : 192 Кбит/сек
Каналы : 2 канала
Расположение каналов : Front: L R
Частота : 48,0 КГц
Частота кадров : 31,250 кадров/сек (1536 SPF)
Битовая глубина : 16 бит
Метод сжатия : С потерями
Размер потока : 164 Мбайт (2%)
Заголовок : DVO
Язык : Russian
Default : Нет
Forced : Нет

Аудио #4
Идентификатор : 5
Формат : AC-3
Формат/Информация : Audio Coding 3
Параметр Endianness формата : Big
Идентификатор кодека : A_AC3
Продолжительность : 1 ч. 59 м.
Вид битрейта : Постоянный
Битрейт : 640 Кбит/сек
Каналы : 6 каналов
Расположение каналов : Front: L C R, Side: L R, LFE
Частота : 48,0 КГц
Частота кадров : 31,250 кадров/сек (1536 SPF)
Битовая глубина : 16 бит
Метод сжатия : С потерями
Размер потока : 545 Мбайт (6%)
Заголовок : AVO Ivanov
Язык : Russian
Default : Нет
Forced : Нет

Аудио #5
Идентификатор : 6
Формат : AC-3
Формат/Информация : Audio Coding 3
Параметр Endianness формата : Big
Идентификатор кодека : A_AC3
Продолжительность : 1 ч. 59 м.
Вид битрейта : Постоянный
Битрейт : 640 Кбит/сек
Каналы : 6 каналов
Расположение каналов : Front: L C R, Side: L R, LFE
Частота : 48,0 КГц
Частота кадров : 31,250 кадров/сек (1536 SPF)
Битовая глубина : 16 бит
Метод сжатия : С потерями
Размер потока : 545 Мбайт (6%)
Заголовок : Original
Язык : English
Default : Нет
Forced : Нет

Аудио #6
Идентификатор : 7
Формат : AC-3
Формат/Информация : Audio Coding 3
Параметр Endianness формата : Big
Идентификатор кодека : A_AC3
Продолжительность : 1 ч. 59 м.
Вид битрейта : Постоянный
Битрейт : 192 Кбит/сек
Каналы : 2 канала
Расположение каналов : Front: L R
Частота : 48,0 КГц
Частота кадров : 31,250 кадров/сек (1536 SPF)
Битовая глубина : 16 бит
Метод сжатия : С потерями
Размер потока : 164 Мбайт (2%)
Заголовок : Commentary
Язык : English
Default : Нет
Forced : Нет

Текст #1
Идентификатор : 8
Формат : UTF-8
Идентификатор кодека : S_TEXT/UTF8
Идентификатор кодека/Информация : UTF-8 Plain Text
Язык : Russian
Default : Нет
Forced : Нет

Текст #2
Идентификатор : 9
Формат : UTF-8
Идентификатор кодека : S_TEXT/UTF8
Идентификатор кодека/Информация : UTF-8 Plain Text
Язык : English
Default : Нет
Forced : Нет

Меню
00:00:00.000 : en:00:00:00.000
00:07:24.819 : en:00:07:24.819
00:13:24.262 : en:00:13:24.262
00:20:15.506 : en:00:20:15.506
00:27:49.835 : en:00:27:49.835
00:31:52.869 : en:00:31:52.869
00:41:30.697 : en:00:41:30.697
00:47:51.911 : en:00:47:51.911
00:54:28.098 : en:00:54:28.098
01:04:14.350 : en:01:04:14.350
01:12:36.519 : en:01:12:36.519
01:16:38.010 : en:01:16:38.010
01:22:31.989 : en:01:22:31.989
01:29:50.218 : en:01:29:50.218
01:38:02.085 : en:01:38:02.085
01:47:51.256 : en:01:47:51.256
x264 [info]: frame I:1037 Avg QP:18.94 size: 115452
x264 [info]: frame P:28781 Avg QP:20.56 size: 66990
x264 [info]: frame B:141470 Avg QP:22.05 size: 41138


_________________
Проголосуй за трекер Открытый торрент трекер - RUS-MEDIA.ORG

Проголосуй Открытый торрент трекер - RUS-MEDIA.ORG


Вернуться к началу
 Профиль Отправить личное сообщение  
 
   Похожие торренты   Автор   Торрент   Размер 
В этой теме нет новых непрочитанных сообщений. Правосудие для всех / ...And Justice for All [триллер, драма, криминал, 1979] BDRip, Mvo [Первый кана]

salma3

21 | 17

1.46 ГБ

В этой теме нет новых непрочитанных сообщений. Правосудие Стила / Steele Justice [Боевик, триллер, драма, 1987] BDRip 1080p, Dvo

salma3

0 | 0

9.46 ГБ

В этой теме нет новых непрочитанных сообщений. Правосудие Чикаго / Chicago Justice [01x12 из 14] [Драма, криминал, 2017] WEBRip, Mvo [IdeaFilm]

salma3

20 | 22

7.85 ГБ

В этой теме нет новых непрочитанных сообщений. Во имя справедливости / Out For Justice [Боевик, триллер, драма, криминал, 1991] BDRip 720p, Dub+Dvo+Mvo+Avo

salma3

16 | 8

5.5 ГБ

В этой теме нет новых непрочитанных сообщений. Широко шагая 3: Правосудие в одиночку / Walking Tall: Lone Justice [Боевик, триллер, драма, 2007] WEB-DL 1080p, Mvo

salma3

0 | 0

9.46 ГБ

В этой теме нет новых непрочитанных сообщений. Правосудие / Justice [вестерн, 2017] WEBDLRip, Mvo

salma3

292 | 71

1.37 ГБ

В этой теме нет новых непрочитанных сообщений. Воины / The Warriors [боевик, триллер, криминал, 1979] BDRip 720p, Dvo

salma3

55 | 2

6.02 ГБ


Начать новую тему Ответить на тему  [ 1 сообщение ] 




Для Мосгорсуда, Роскомнадзора и рекламодателей:: mosgorsud-torrent[собачка]yandex.ru
cron