Торрент файл
скачать торрент магнет ссылка Добавлен: 28 ноя 2017, 12:49
Размер: 5.26 ГБ
Сидеров: 13
Личеров: 1
Статус: (salma3)
Автор

СообщениеДобавлено: 28 ноя 2017, 12:49 

Не в сети
Супермодератор
Аватара пользователя
Дата регистрации:
15 фев 2012, 16:44
Возраст: 29
Спасибо: 7393 / 2147
Сообщения: 78044
Год выхода: 2011
Жанр: Боевик, триллер, драма
Режиссер: Джо Карнахан

В ролях: Лиам Нисон, Дермот Малруни, Фрэнк Грилло, Джеймс Бэдж, Дэйл Джо Андерсон, Нонсо Анози, Даллас Робертс, Лариса Стадничук, Бен Брэй, Джеймс Битонти

О фильме:
Суровый и очень красивый фильм о выживании, о пределах сил человеческого тела и души. Картина, в которой суровые но прекрасные виды заснеженных гор дополняются прекраснейшей, отлично выражающей дух фильма музыкой… Встреча человека с дикой природой, причем абсолютно к этому не готового, часто занимает умы сценаристов, а потом уже и постановщиков. Чаще всего подобные сюжеты берутся из реальных героических историй о выживании, иногда из романов. В данном случае сюжетом послужил короткий рассказ «Призрачный попутчик» (Ghost Walker). На этот раз нервы зрителя щекочут давно проверенными приемами, по классической схеме, но с новыми действующими лицами и угрозой - пейзажи невероятно красивой природы чередуются в жестокими сценами с волками…



Страна: США
Продолжительность: 01:57:05
Перевод: Дублированный

Файл
Формат: MKV
Кодек: H.264
Качество: BDRip (720p)
Видео: MPEG-4 AVC 1280*720 5534kbps 23,976fps {OPEN MATE}*
Звук:
Аудио#1: Русский AC3 5.1 48kHz@448kbps
Аудио#2: Английский AC3 5.1 48kHz@448kbps
Субтитры: Русские, английские, немецкие, французские, испанские, итальянские, голландские, португальские

General
Unique ID : 221058814447462381880198043708825010293 (0xA64E61078DC2045DAC846FDD14640075)
Complete name : The.Grey.2012.x264.BDRip.720p.AC3.HDLine.mkv
Format : Matroska
Format version : Version 4 / Version 2
File size : 5.26 GiB
Duration : 1h 57mn
Overall bit rate : 6 425 Kbps
Movie name : The.Grey.2012.x264.BDRip.720p.AC3.HDLine
Encoded date : UTC 2016-02-29 22:07:58
Writing application : mkvmerge v8.9.0 ('Father Daughter') 64bit
Writing library : libebml v1.3.3 + libmatroska v1.4.4
Attachements : Cover.jpg

Video
ID : 1
Format : AVC
Format/Info : Advanced Video Codec
Format profile : High@L3.1
Format settings, CABAC : Yes
Format settings, ReFrames : 4 frames
Codec ID : V_MPEG4/ISO/AVC
Duration : 1h 57mn
Bit rate : 5 534 Kbps
Width : 1 280 pixels
Height : 720 pixels
Display aspect ratio : 16:9
Frame rate mode : Constant
Frame rate : 23.976 (24000/1001) fps
Color space : YUV
Chroma subsampling : 4:2:0
Bit depth : 8 bits
Scan type : Progressive
Bits/(Pixel*Frame) : 0.250
Stream size : 4.53 GiB (86%)
Title : The Grey (2012)
Writing library : x264 core 148 r2665kMod a01e339
Encoding settings : cabac=1 / ref=5 / deblock=1:0:0 / analyse=0x3:0x133 / me=umh / subme=10 / psy=1 / fade_compensate=0.00 / psy_rd=1.00:0.00 / mixed_ref=1 / me_range=24 / chroma_me=1 / trellis=2 / 8x8dct=1 / cqm=0 / deadzone=21,11 / fast_pskip=1 / chroma_qp_offset=-2 / threads=10 / lookahead_threads=1 / sliced_threads=0 / nr=0 / decimate=1 / interlaced=0 / bluray_compat=1 / constrained_intra=0 / fgo=0 / bframes=3 / b_pyramid=1 / b_adapt=2 / b_bias=0 / direct=3 / weightb=1 / open_gop=0 / weightp=1 / keyint=250 / keyint_min=1 / scenecut=40 / intra_refresh=0 / rc_lookahead=60 / rc=2pass / mbtree=1 / bitrate=5534 / ratetol=1.0 / qcomp=0.60 / qpmin=0 / qpmax=69 / qpstep=4 / cplxblur=20.0 / qblur=0.5 / ip_ratio=1.40 / aq=1:1.00
Language : English
Default : Yes
Forced : No

Audio #1
ID : 2
Format : AC-3
Format/Info : Audio Coding 3
Mode extension : CM (complete main)
Format settings, Endianness : Big
Codec ID : A_AC3
Duration : 1h 57mn
Bit rate mode : Constant
Bit rate : 448 Kbps
Channel(s) : 6 channels
Channel positions : Front: L C R, Side: L R, LFE
Sampling rate : 48.0 KHz
Frame rate : 31.250 fps (1536 spf)
Compression mode : Lossy
Stream size : 375 MiB (7%)
Title : DUB - AC3 5.1 48kHz@448kbps
Language : Russian
Default : Yes
Forced : No

Audio #2
ID : 3
Format : AC-3
Format/Info : Audio Coding 3
Mode extension : CM (complete main)
Format settings, Endianness : Big
Codec ID : A_AC3
Duration : 1h 57mn
Bit rate mode : Constant
Bit rate : 448 Kbps
Channel(s) : 6 channels
Channel positions : Front: L C R, Side: L R, LFE
Sampling rate : 48.0 KHz
Frame rate : 31.250 fps (1536 spf)
Compression mode : Lossy
Stream size : 376 MiB (7%)
Title : Original - AC3 5.1 48kHz@448kbps
Language : English
Default : No
Forced : No

Text #1
ID : 4
Format : UTF-8
Codec ID : S_TEXT/UTF8
Codec ID/Info : UTF-8 Plain Text
Duration : 1h 49mn
Bit rate : 54 bps
Count of elements : 906
Stream size : 43.4 KiB (0%)
Language : Russian
Default : No
Forced : No

Text #2
ID : 5
Format : UTF-8
Codec ID : S_TEXT/UTF8
Codec ID/Info : UTF-8 Plain Text
Duration : 1h 56mn
Bit rate : 42 bps
Count of elements : 1296
Stream size : 36.7 KiB (0%)
Language : English
Default : No
Forced : No

Text #3
ID : 6
Format : UTF-8
Codec ID : S_TEXT/UTF8
Codec ID/Info : UTF-8 Plain Text
Duration : 1h 49mn
Bit rate : 35 bps
Count of elements : 874
Stream size : 28.5 KiB (0%)
Language : German
Default : No
Forced : No

Text #4
ID : 7
Format : UTF-8
Codec ID : S_TEXT/UTF8
Codec ID/Info : UTF-8 Plain Text
Duration : 1h 49mn
Bit rate : 39 bps
Count of elements : 1019
Stream size : 31.5 KiB (0%)
Language : French
Default : No
Forced : No

Text #5
ID : 8
Format : UTF-8
Codec ID : S_TEXT/UTF8
Codec ID/Info : UTF-8 Plain Text
Duration : 1h 49mn
Bit rate : 37 bps
Count of elements : 1030
Stream size : 29.9 KiB (0%)
Language : Spanish
Default : No
Forced : No

Text #6
ID : 9
Format : UTF-8
Codec ID : S_TEXT/UTF8
Codec ID/Info : UTF-8 Plain Text
Duration : 1h 49mn
Bit rate : 38 bps
Count of elements : 955
Stream size : 31.0 KiB (0%)
Language : Italian
Default : No
Forced : No

Text #7
ID : 10
Format : UTF-8
Codec ID : S_TEXT/UTF8
Codec ID/Info : UTF-8 Plain Text
Duration : 1h 49mn
Bit rate : 35 bps
Count of elements : 727
Stream size : 28.6 KiB (0%)
Language : Dutch
Default : No
Forced : No

Text #8
ID : 11
Format : UTF-8
Codec ID : S_TEXT/UTF8
Codec ID/Info : UTF-8 Plain Text
Duration : 1h 49mn
Bit rate : 36 bps
Count of elements : 998
Stream size : 29.4 KiB (0%)
Language : Portuguese
Default : No
Forced : No

Menu
00:00:00.000 : en:00:00:00
00:07:07.426 : en:00:07:07
00:11:34.235 : en:00:11:34
00:17:52.071 : en:00:17:52
00:23:41.420 : en:00:23:41
00:30:47.178 : en:00:30:47
00:35:30.128 : en:00:35:30
00:43:29.982 : en:00:43:29
00:47:08.784 : en:00:47:08
00:50:57.012 : en:00:50:57
00:59:04.791 : en:00:59:04
01:04:06.384 : en:01:04:06
01:11:31.787 : en:01:11:31
01:14:54.656 : en:01:14:54
01:19:54.247 : en:01:19:54
01:24:16.051 : en:01:24:16
01:33:33.691 : en:01:33:33
01:39:01.018 : en:01:39:01
01:41:12.691 : en:01:41:12
01:49:22.347 : en:01:49:22



Релиз от


_________________
Проголосуй за трекер Открытый торрент трекер - RUS-MEDIA.ORG

Проголосуй Открытый торрент трекер - RUS-MEDIA.ORG


Вернуться к началу
 Профиль Отправить личное сообщение  
 
   Похожие торренты   Автор   Торрент   Размер 
В этой теме нет новых непрочитанных сообщений. Схватка / The Grey [Боевик, триллер, драма, 2011] BDRip-AVC, Dub [Open Matte]

salma3

28 | 0

2.86 ГБ

В этой теме нет новых непрочитанных сообщений. Схватка / The Grey [Триллер, драма, 2011] BDRip 1080p, Dub [Open Matte]

salma3

0 | 7

10.77 ГБ

В этой теме нет новых непрочитанных сообщений. Одиночка / A Man Apart [Боевик, триллер, драма, 2003] BDRip 720p, Dub [Open Matte]

salma3

0 | 1

7.76 ГБ

В этой теме нет новых непрочитанных сообщений. Схватка / The Grey (Джо Карнахан) [2012, боевик, триллер, драма, приключения, BDRip (1080p)]

marya111

0 | 0

8.76 ГБ

В этой теме нет новых непрочитанных сообщений. Эквилибриум / Equilibrium [фантастика, боевик, триллер, 2002] BDRip 720p, Dub [Open Matte]

salma3

0 | 0

8.48 ГБ

В этой теме нет новых непрочитанных сообщений. Ю-571 / U-571 [Боевик, драма, военный, 2000] BDRip 720p, Dub [Open Matte]

salma3

0 | 0

9.77 ГБ

В этой теме нет новых непрочитанных сообщений. Я, робот / I, Robot [фантастика, боевик, триллер, детектив, 2004] BDRip 720p, Dub [Open Matte] [60 fps]

salma3

0 | 0

15.27 ГБ


Начать новую тему Ответить на тему  [ 1 сообщение ] 




Для Мосгорсуда, Роскомнадзора и рекламодателей:: mosgorsud-torrent[собачка]yandex.ru
cron