Торрент файл
скачать торрент магнет ссылка Добавлен: 28 ноя 2017, 16:59
Размер: 43.9 ГБ
Сидеров: 15
Личеров: 4
Статус: (salma3)
Автор

СообщениеДобавлено: 28 ноя 2017, 16:59 

Не в сети
Супермодератор
Аватара пользователя
Дата регистрации:
15 фев 2012, 16:44
Возраст: 29
Спасибо: 7400 / 2147
Сообщения: 78391
Год выхода: 1995
Жанр: Драма, катастрофа, история
Режиссер: Рон Ховард

В ролях: Том Хэнкс, Билл Пэкстон, Кевин Бэйкон, Гэри Синиз, Эд Харрис, Кэтлин Куинлен, Мэри Кейт Шеллхардт, Эмили Энн Ллойд, Мико Хьюз, Макс Эллиотт Слэйд, Трэйси Рейнер, Дэвид Эндрюс, Мишель Литтл, Крис Эллис, Джо Спано, Ксандер Беркли, Марк МакКлюр, Бен Марли, Клинт Ховард, Лорен Дин

О фильме:
Космический блокбастер, приключенческая лента с изобретательным сюжетом, который держит в напряжении и щекочет нервы, но при этом лишен кровопролития и жестокости. Корабль Аполлон 13 терпит катастрофу в глубинах космоса. Мужественные астронавты на волосок от гибели…



Страна: США,
Продолжительность: 02:20:21
Перевод: Дублированный

Файл
Качество: BDRemux 2160p
Видео: MPEG-H HEVC HDR Video, 3840x2160, 36.8 Mbit/s, 23.976 fps
Аудио01: 48 kHz, DTS, 5.1, 768 Kbps | Дублированный | RUS
Аудио02: 48 kHz, DTS-HD MA, 7.1, 7230 Kbps | Оригинал | ENG
Субтитры: Русские (forced, full), английские

General
Unique ID : 227141320363956316656178506202012451871 (0xAAE1D3B986C8E290BCE28D51DAE8041F)
Complete name : G:VideoSSDApollo.13.1995.BDREMUX.2160p.4K.UltraHD.HEVC.HDR.ExKinoRay.mkv
Format : Matroska
Format version : Version 4 / Version 2
File size : 43.9 GiB
Duration : 2 h 20 min
Overall bit rate : 44.8 Mb/s
Movie name : Apollo.13.1995.ExKinoRay
Encoded date : UTC 2017-11-28 12:27:12
Writing application : mkvmerge v17.0.0 ('Be Ur Friend') 64-bit
Writing library : libebml v1.3.5 + libmatroska v1.4.8

Video
ID : 1
Format : HEVC
Format/Info : High Efficiency Video Coding
Format profile : Main 10@L5.1@High
Codec ID : V_MPEGH/ISO/HEVC
Duration : 2 h 20 min
Bit rate : 36.8 Mb/s
Width : 3 840 pixels
Height : 2 160 pixels
Display aspect ratio : 16:9
Frame rate mode : Constant
Frame rate : 23.976 (24000/1001) FPS
Color space : YUV
Chroma subsampling : 4:2:0 (Type 2)
Bit depth : 10 bits
Bits/(Pixel*Frame) : 0.185
Stream size : 36.1 GiB (82%)
Writing library : ATEME Titan File 3.8.3 (4.8.3.0)
Language : English
Default : Yes
Forced : No
Color range : Limited
Color primaries : BT.2020
Transfer characteristics : PQ
Matrix coefficients : BT.2020 non-constant
Mastering display color pri : R: x=0.680000 y=0.320000, G: x=0.265000 y=0.690000, B: x=0.150000 y=0.060000, White point: x=0.312700 y=0.329000
Mastering display luminance : min: 0.0050 cd/m2, max: 1000.0000 cd/m2
Maximum Content Light Level : 1000 cd/m2
Maximum Frame-Average Light : 293 cd/m2

Audio #1
ID : 2
Format : DTS
Format/Info : Digital Theater Systems
Mode : 16
Format settings, Endianness : Big
Codec ID : A_DTS
Duration : 2 h 19 min
Bit rate mode : Constant
Bit rate : 768 kb/s
Channel(s) : 6 channels
Channel positions : Front: L C R, Side: L R, LFE
Sampling rate : 48.0 kHz
Frame rate : 93.750 FPS (512 SPF)
Bit depth : 24 bits
Compression mode : Lossy
Stream size : 767 MiB (2%)
Title : Dub
Language : Russian
Default : Yes
Forced : No

Audio #2
ID : 3
Format : DTS
Format/Info : Digital Theater Systems
Format profile : X / MA / Core
Mode : 16
Format settings, Endianness : Big
Codec ID : A_DTS
Duration : 2 h 20 min
Bit rate mode : Variable / Variable / Constant
Bit rate : 7 230 kb/s / 7 230 kb/s / 1 509 kb/s
Channel(s) : Object Based / 8 channels / 6 channels
Channel positions : Object Based / Front: L C R, Side: L R, Back: L R, LFE / Front: L C R, Side: L R, LFE
Sampling rate : / 48.0 kHz / 48.0 kHz
Frame rate : 93.750 FPS (512 SPF)
Bit depth : / 24 bits / 24 bits
Compression mode : / Lossless / Lossy
Stream size : 7.08 GiB (16%)
Title : Original
Language : English
Default : No
Forced : No

Text #1
ID : 4
Format : UTF-8
Codec ID : S_TEXT/UTF8
Codec ID/Info : UTF-8 Plain Text
Duration : 2 h 5 min
Bit rate : 2 b/s
Count of elements : 50
Stream size : 2.29 KiB (0%)
Title : Forced
Language : Russian
Default : Yes
Forced : No

Text #2
ID : 5
Format : UTF-8
Codec ID : S_TEXT/UTF8
Codec ID/Info : UTF-8 Plain Text
Duration : 2 h 13 min
Bit rate : 134 b/s
Count of elements : 1902
Stream size : 132 KiB (0%)
Title : Full
Language : Russian
Default : No
Forced : No

Text #3
ID : 6
Format : UTF-8
Codec ID : S_TEXT/UTF8
Codec ID/Info : UTF-8 Plain Text
Duration : 2 h 13 min
Bit rate : 78 b/s
Count of elements : 1814
Stream size : 76.7 KiB (0%)
Title : Full
Language : English
Default : No
Forced : No

Text #4
ID : 7
Format : UTF-8
Codec ID : S_TEXT/UTF8
Codec ID/Info : UTF-8 Plain Text
Duration : 2 h 13 min
Bit rate : 82 b/s
Count of elements : 1841
Stream size : 80.5 KiB (0%)
Title : SDH
Language : English
Default : No
Forced : No

Menu
00:00:00.000 : en:Chapter 1
00:09:38.745 : en:Chapter 2
00:19:49.021 : en:Chapter 3
00:34:21.560 : en:Chapter 4
00:45:15.045 : en:Chapter 5
00:49:37.808 : en:Chapter 6
01:02:00.049 : en:Chapter 7
01:05:52.982 : en:Chapter 8
01:10:05.034 : en:Chapter 9
01:15:08.637 : en:Chapter 10
01:17:07.790 : en:Chapter 11
01:19:41.277 : en:Chapter 12
01:35:12.207 : en:Chapter 13
01:39:10.778 : en:Chapter 14
01:48:21.162 : en:Chapter 15
01:56:42.028 : en:Chapter 16
01:58:49.623 : en:Chapter 17
02:05:17.677 : en:Chapter 18
02:09:06.906 : en:Chapter 19
02:14:05.871 : en:Chapter 20


Релиз от: Автор релиза:


_________________
Проголосуй за трекер Открытый торрент трекер - RUS-MEDIA.ORG

Проголосуй Открытый торрент трекер - RUS-MEDIA.ORG


Вернуться к началу
 Профиль Отправить личное сообщение  
 
   Похожие торренты   Автор   Торрент   Размер 
В этой теме нет новых непрочитанных сообщений. Аполлон 13 / Apollo 13 [драма, приключения, история, 1995] UHD BDRemux 2160p, Dub [4K]

salma3

8 | 20

50.96 ГБ

В этой теме нет новых непрочитанных сообщений. Аполлон 13 / Apollo 13 [Драма, фильм-катастрофа, история, 1995] HDRip-AVC, Dub [Open Matte]

salma3

8 | 1

747.4 МБ

В этой теме нет новых непрочитанных сообщений. Аполлон 13 / Apollo 13 [драма, история, 1995] DVDRemux, Dub [Fullscreen]

salma3

7 | 2

6.07 ГБ

В этой теме нет новых непрочитанных сообщений. Аполлон 13 / Apollo 13 [драма, приключения, история, 1995] HybridRip 1080p, Dub [Open Matte]

salma3

0 | 0

15.96 ГБ

В этой теме нет новых непрочитанных сообщений. Аполлон 13 / Apollo 13 [драма, история, триллер, 1995] Hybrid 1080p, Dub [Open Matte]

salma3

4 | 2

26.78 ГБ

В этой теме нет новых непрочитанных сообщений. Аполлон 13. Хьюстон у нас проблемы / Apollo 13 - Houston, we`ve got a problem (НАСА) [1972, документальный, космос, WEB-DLRip] ENG

salma3

0 | 1

319.9 МБ

В этой теме нет новых непрочитанных сообщений. Храброе сердце / Braveheart [Исторический, драма, военный, 1995] UHD BDRemux 2160p, Dub [4K]

salma3

0 | 1

80.06 ГБ


Начать новую тему Ответить на тему  [ 1 сообщение ] 




Для Мосгорсуда, Роскомнадзора и рекламодателей:: mosgorsud-torrent[собачка]yandex.ru
cron