Торрент файл
скачать торрент магнет ссылка Добавлен: 30 ноя 2017, 14:09
Размер: 7.21 ГБ
Сидеров: 10
Личеров: 2
Статус: (salma3)
Автор

СообщениеДобавлено: 30 ноя 2017, 14:09 

Не в сети
Супермодератор
Аватара пользователя
Дата регистрации:
15 фев 2012, 16:44
Возраст: 29
Спасибо: 7433 / 2147
Сообщения: 80216
Страна: США
Жанр: боевик
Год выпуска: 1998
Продолжительность: 01:36:07

Перевод 1: Профессиональный (дублированный) Видеосервис
Перевод 2: Профессиональный (многоголосый закадровый) R5 со вставками VO (Евгения Гаевского)
Перевод 3: Авторский (одноголосый закадровый) Андрей Гаврилов
Перевод 4: Авторский (одноголосый закадровый) Юрий Живов со вставками AVO (Андрея Гаврилова)
Перевод 5: Авторский (одноголосый закадровый) Сергей Визгунов со вставками AVO (Андрея Гаврилова)
Перевод 6: Одноголосый закадровый Евгений Гаевский по переводу Артёма Завгороднего
Cубтитры: русские (форсированные для дубляжа) и полные русские и английские
Оригинальная аудиодорожка: английский

Режиссер: Антуан Фукуа / Antoine Fuqua
В ролях: Чоу Юнь-Фат, Мира Сорвино, Майкл Рукер, Кеннет Цан, Юрген Прохнов, Тиль Швайгер,
Дэнни Трехо, Клифтон Коллинз мл., Карлос Гомес, Фрэнк Медрано

Описание: Профессиональный киллер Джон Ли получает новое задание — убить полицейского.
Но в решающий момент он не смог нажать на курок: под прицелом оказался ребенок.
А мафия не прощает ошибок...


Тип релиза: BDRip 720p
Контейнер: MKV
Видео: MPEG-4 AVC, 1280x532, 23.976 fps, 7600 kbps
Аудио 1: русский / AC3 / 5.1 / 48 kHz / 384 kbps / 16 bit || DUB
Аудио 2: русский / AC3 / 5.1 / 48 kHz / 448 kbps / 16 bit || MVO
Аудио 3: русский / AC3 / 5.1 / 48 kHz / 384 kbps / 16 bit || Гаврилов
Аудио 4: русский / AC3 / 5.1 / 48 kHz / 448 kbps / 16 bit || Живов
Аудио 5: русский / AC3 / 2.0 / 48 kHz / 192 kbps / 16 bit || Визгунов
Аудио 6: русский / AC3 / 5.1 / 48 kHz / 640 kbps / 16 bit || Гаевский(ненормативная лексика)
Аудио 7: английский / АС3/ 5.1 / 48 kHz / 640 kbps / 16 bit || ENG
Формат субтитров: softsub (SRT)
Главы: есть (подписаны)
x264 [info]: frame I:930 Avg QP:14.33 size:129667
x264 [info]: frame P:33147 Avg QP:17.24 size: 63442
x264 [info]: frame B:104211 Avg QP:18.99 size: 31224

Общее
Уникальный идентификатор : 207934722643173598055329984858321030027 (0x9C6EC5587FB0402A99C8DCEEFAB78B8B)
Полное имя : E:Мои рипыУбийцы на замену 1998_BDRip 720p_KORSAR.mkv
Формат : Matroska
Версия формата : Version 2
Размер файла : 7,21 Гбайт
Продолжительность : 1 ч. 36 м.
Общий поток : 10,7 Мбит/сек
Название фильма : Убийцы на замену 1998_BDRip 720_KORSAR
Дата кодирования : UTC 2017-11-29 09:28:07
Программа кодирования : mkvmerge v5.8.0 ('No Sleep / Pillow') built on Sep 2 2012 15:37:04
Библиотека кодирования : libebml v1.2.3 + libmatroska v1.3.0

Видео
Идентификатор : 1
Формат : AVC
Формат/Информация : Advanced Video Codec
Профиль формата : High@L4.1
Настройки формата : CABAC / 12 Ref Frames
Параметр CABAC формата : Да
Параметр RefFrames формата : 12 кадров
Идентификатор кодека : V_MPEG4/ISO/AVC
Продолжительность : 1 ч. 36 м.
Битрейт : 7600 Кбит/сек
Ширина : 1280 пикселей
Высота : 532 пикселя
Соотношение сторон : 2,40:1
Режим частоты кадров : Постоянный
Частота кадров : 23,976 (24000/1001) кадра/сек
Цветовое пространство : YUV
Субдискретизация насыщенности : 4:2:0
Битовая глубина : 8 бит
Тип развёртки : Прогрессивная
Бит/(Пиксели*Кадры) : 0.465
Размер потока : 4,96 Гбайт (69%)
Библиотека кодирования : x264 core 152 r2851kMod ba24899
Настройки программы : cabac=1 / ref=12 / deblock=1:-2:-2 / analyse=0x3:0x113 / me=umh / subme=11 / psy=1 / fade_compensate=0.00 / psy_rd=1.00:0.05 / mixed_ref=1 / me_range=48 / chroma_me=1 / trellis=2 / 8x8dct=1 / cqm=0 / deadzone=21,11 / fast_pskip=0 / chroma_qp_offset=-3 / threads=12 / lookahead_threads=3 / sliced_threads=0 / nr=0 / decimate=0 / interlaced=0 / bluray_compat=0 / constrained_intra=0 / bframes=12 / b_pyramid=2 / b_adapt=2 / b_bias=0 / direct=3 / weightb=1 / open_gop=0 / weightp=2 / keyint=240 / keyint_min=23 / scenecut=40 / intra_refresh=0 / rc_lookahead=40 / rc=2pass / mbtree=0 / bitrate=7600 / ratetol=1.0 / qcomp=0.60 / qpmin=0 / qpmax=39 / qpstep=4 / cplxblur=20.0 / qblur=0.5 / vbv_maxrate=50000 / vbv_bufsize=62500 / nal_hrd=none / filler=0 / ip_ratio=1.40 / pb_ratio=1.30 / aq=1:1.00
Язык : English
Default : Да
Forced : Нет
Цветовой диапазон : Limited
Основные цвета : BT.709
Характеристики трансфера : BT.709
Коэффициенты матрицы : BT.709

Аудио #1
Идентификатор : 2
Формат : AC-3
Формат/Информация : Audio Coding 3
Параметр Endianness формата : Big
Идентификатор кодека : A_AC3
Продолжительность : 1 ч. 36 м.
Вид битрейта : Постоянный
Битрейт : 384 Кбит/сек
Каналы : 6 каналов
Расположение каналов : Front: L C R, Side: L R, LFE
Частота : 48,0 КГц
Частота кадров : 31,250 кадров/сек (1536 SPF)
Битовая глубина : 16 бит
Метод сжатия : С потерями
Размер потока : 264 Мбайт (4%)
Заголовок : DUB (Видеосервис)
Язык : Russian
Default : Да
Forced : Нет
Statistics Tags Issue : mkvmerge v8.5.2 ('Crosses') 64bit 2017-02-18 11:41:53 / mkvmerge v5.8.0 ('No Sleep / Pillow') built on Sep 2 2012 15:37:04 2017-11-29 09:28:07
FromStats_BitRate : 384000
FromStats_Duration : 01:36:07.776000000
FromStats_FrameCount : 180243
FromStats_StreamSize : 276853248

Аудио #2
Идентификатор : 3
Формат : AC-3
Формат/Информация : Audio Coding 3
Параметр Endianness формата : Big
Идентификатор кодека : A_AC3
Продолжительность : 1 ч. 36 м.
Вид битрейта : Постоянный
Битрейт : 448 Кбит/сек
Каналы : 6 каналов
Расположение каналов : Front: L C R, Side: L R, LFE
Частота : 48,0 КГц
Частота кадров : 31,250 кадров/сек (1536 SPF)
Битовая глубина : 16 бит
Метод сжатия : С потерями
Размер потока : 308 Мбайт (4%)
Заголовок : MVO (R5) со вставками VO (Евгения Гаевского)
Язык : Russian
Default : Нет
Forced : Нет
Statistics Tags Issue : mkvmerge v8.5.2 ('Crosses') 64bit 2017-02-18 11:41:53 / mkvmerge v5.8.0 ('No Sleep / Pillow') built on Sep 2 2012 15:37:04 2017-11-29 09:28:07
FromStats_BitRate : 448000
FromStats_Duration : 01:36:07.808000000
FromStats_FrameCount : 180244
FromStats_StreamSize : 322997248

Аудио #3
Идентификатор : 4
Формат : AC-3
Формат/Информация : Audio Coding 3
Параметр Endianness формата : Big
Идентификатор кодека : A_AC3
Продолжительность : 1 ч. 36 м.
Вид битрейта : Постоянный
Битрейт : 384 Кбит/сек
Каналы : 6 каналов
Расположение каналов : Front: L C R, Side: L R, LFE
Частота : 48,0 КГц
Частота кадров : 31,250 кадров/сек (1536 SPF)
Битовая глубина : 16 бит
Метод сжатия : С потерями
Размер потока : 264 Мбайт (4%)
Заголовок : AVO (Андрей Гаврилов)
Язык : Russian
Default : Нет
Forced : Нет
Statistics Tags Issue : mkvmerge v8.5.2 ('Crosses') 64bit 2017-02-18 11:41:53 / mkvmerge v5.8.0 ('No Sleep / Pillow') built on Sep 2 2012 15:37:04 2017-11-29 09:28:07
FromStats_BitRate : 384000
FromStats_Duration : 01:36:07.488000000
FromStats_FrameCount : 180234
FromStats_StreamSize : 276839424

Аудио #4
Идентификатор : 5
Формат : AC-3
Формат/Информация : Audio Coding 3
Параметр Endianness формата : Big
Идентификатор кодека : A_AC3
Продолжительность : 1 ч. 36 м.
Вид битрейта : Постоянный
Битрейт : 448 Кбит/сек
Каналы : 6 каналов
Расположение каналов : Front: L C R, Side: L R, LFE
Частота : 48,0 КГц
Частота кадров : 31,250 кадров/сек (1536 SPF)
Битовая глубина : 16 бит
Метод сжатия : С потерями
Размер потока : 308 Мбайт (4%)
Заголовок : AVO (Юрий Живов) со вставками AVO (Андрея Гаврилова)
Язык : Russian
Default : Нет
Forced : Нет
Statistics Tags Issue : mkvmerge v8.5.2 ('Crosses') 64bit 2017-02-18 11:41:53 / mkvmerge v5.8.0 ('No Sleep / Pillow') built on Sep 2 2012 15:37:04 2017-11-29 09:28:07
FromStats_BitRate : 448000
FromStats_Duration : 01:36:07.712000000
FromStats_FrameCount : 180241
FromStats_StreamSize : 322991872

Аудио #5
Идентификатор : 6
Формат : AC-3
Формат/Информация : Audio Coding 3
Параметр Endianness формата : Big
Идентификатор кодека : A_AC3
Продолжительность : 1 ч. 36 м.
Вид битрейта : Постоянный
Битрейт : 192 Кбит/сек
Каналы : 2 канала
Расположение каналов : Front: L R
Частота : 48,0 КГц
Частота кадров : 31,250 кадров/сек (1536 SPF)
Битовая глубина : 16 бит
Метод сжатия : С потерями
Размер потока : 132 Мбайт (2%)
Заголовок : AVO (Сергей Визгунов) со вставками AVO (Андрея Гаврилова)
Язык : Russian
Default : Нет
Forced : Нет
Statistics Tags Issue : mkvmerge v8.5.2 ('Crosses') 64bit 2017-02-18 11:41:53 / mkvmerge v5.8.0 ('No Sleep / Pillow') built on Sep 2 2012 15:37:04 2017-11-29 09:28:07
FromStats_BitRate : 192000
FromStats_Duration : 01:36:07.616000000
FromStats_FrameCount : 180238
FromStats_StreamSize : 138422784

Аудио #6
Идентификатор : 7
Формат : AC-3
Формат/Информация : Audio Coding 3
Параметр Endianness формата : Big
Идентификатор кодека : A_AC3
Продолжительность : 1 ч. 36 м.
Вид битрейта : Постоянный
Битрейт : 640 Кбит/сек
Каналы : 6 каналов
Расположение каналов : Front: L C R, Side: L R, LFE
Частота : 48,0 КГц
Частота кадров : 31,250 кадров/сек (1536 SPF)
Битовая глубина : 16 бит
Метод сжатия : С потерями
Размер потока : 440 Мбайт (6%)
Заголовок : E. Gaevskiy
Язык : Russian
Default : Нет
Forced : Нет

Аудио #7
Идентификатор : 8
Формат : AC-3
Формат/Информация : Audio Coding 3
Параметр Endianness формата : Big
Идентификатор кодека : A_AC3
Продолжительность : 1 ч. 36 м.
Вид битрейта : Постоянный
Битрейт : 640 Кбит/сек
Каналы : 6 каналов
Расположение каналов : Front: L C R, Side: L R, LFE
Частота : 48,0 КГц
Частота кадров : 31,250 кадров/сек (1536 SPF)
Битовая глубина : 16 бит
Метод сжатия : С потерями
Размер потока : 440 Мбайт (6%)
Язык : English
Default : Нет
Forced : Нет

Текст #1
Идентификатор : 9
Формат : UTF-8
Идентификатор кодека : S_TEXT/UTF8
Идентификатор кодека/Информация : UTF-8 Plain Text
Язык : Russian
Default : Нет
Forced : Нет

Текст #2
Идентификатор : 10
Формат : UTF-8
Идентификатор кодека : S_TEXT/UTF8
Идентификатор кодека/Информация : UTF-8 Plain Text
Язык : English
Default : Нет
Forced : Нет

Меню
00:00:00.000 : en:1. Start
00:03:03.549 : en:2. A Bloody Bust
00:07:18.312 : en:3. Unwelcome Respects
00:09:12.654 : en:4. One Final Assignment
00:12:33.255 : en:5. A Small Dilemma
00:14:50.666 : en:6. "I Went Against Mr. Wei"
00:17:13.093 : en:7. The Woman to See
00:20:06.612 : en:8. Forging a Partnership
00:27:10.882 : en:9. In Over Her Head
00:31:05.585 : en:10. Walking Bull's-Eyes
00:36:17.519 : en:11. Car Wash Chaos
00:44:57.075 : en:12. The Replacements
00:46:52.420 : en:13. Setting Things Straight
00:51:36.270 : en:14. Running Out of Time
00:52:52.498 : en:15. The General's Son
00:54:51.855 : en:16. Arcade Assassins
01:01:13.999 : en:17. Execrable Eavesdroppers
01:02:23.207 : en:18. Gift From a Dying Man
01:05:24.750 : en:19. Can't Stand Aside
01:09:17.447 : en:20. Friends in Low Places
01:12:45.069 : en:21. The Time and the Place
01:14:33.393 : en:22. Feature Firefight
01:16:58.828 : en:23. Daddy's Not Happy
01:18:31.105 : en:24. A Shared Problem
01:20:31.465 : en:25. Alleyway Assault
01:24:59.267 : en:26. Positions Reversed
01:27:30.720 : en:27. Face to Face
01:30:50.318 : en:28. A Going-Away Present
01:32:50.915 : en:29. End Credits
01:36:07.000 : en:30. End





_________________
Проголосуй за трекер Открытый торрент трекер - RUS-MEDIA.ORG

Проголосуй Открытый торрент трекер - RUS-MEDIA.ORG


Вернуться к началу
 Профиль Отправить личное сообщение  
 
   Похожие торренты   Автор   Торрент   Размер 
В этой теме нет новых непрочитанных сообщений. Убийцы на замену / The Replacement Killers [боевик, криминал, драма, триллер, 1998] BDRemux 1080p, Mvo [Extended Cut]

salma3

3 | 2

23.42 ГБ

В этой теме нет новых непрочитанных сообщений. Наёмные убийцы / Contract Killers [боевик, триллер, 2008] BDRip 1080p, Dvo

salma3

0 | 0

8.33 ГБ

В этой теме нет новых непрочитанных сообщений. Самые опасные убийцы: Леди-убийцы / World's deadliest. Lady killers (Джина Рубинштейн) [2013, документальный, фауна, HDTVRip] VO

salma3

0 | 0

644.2 МБ

В этой теме нет новых непрочитанных сообщений. Nat Geo Wild: Африка: Убийцы с фантазией / Africa's Creative Killers [01-03] (2014) HDTVRip-AVC | P1

salma3

0 | 0

2.48 ГБ

В этой теме нет новых непрочитанных сообщений. Nat Geo Wild: Африка: Убийцы с фантазией / Africa's Creative Killers [01-03] (2014) HDTVRip | P1

salma3

0 | 0

1.85 ГБ

В этой теме нет новых непрочитанных сообщений. Nat Geo Wild: Африка: Убийцы с фантазией / Africa's Creative Killers [01-03] (2014) HDTV 1080i | P1

salma3

0 | 0

6.63 ГБ

В этой теме нет новых непрочитанных сообщений. Убийцы медового месяца / The Honeymoon Killers [триллер, драма, мелодрама, 1969] HDRip, Avo

salma3

0 | 1

1.45 ГБ


Начать новую тему Ответить на тему  [ 1 сообщение ] 




Для Мосгорсуда, Роскомнадзора и рекламодателей:: mosgorsud-torrent[собачка]yandex.ru
cron