Торрент файл
скачать торрент магнет ссылка Добавлен: 01 дек 2017, 13:05
Размер: 5.46 ГБ
Сидеров: 16
Личеров: 4
Статус: (salma3)
Автор

СообщениеДобавлено: 01 дек 2017, 13:05 

Не в сети
Супермодератор
Аватара пользователя
Дата регистрации:
15 фев 2012, 16:44
Возраст: 29
Спасибо: 7434 / 2147
Сообщения: 80293
Год выхода: 2012
Жанр: боевик, триллер, драма
Режиссер: Бальтасар Кормаукюр

В ролях: Марк Уолберг, Кейт Бекинсейл, Бен Фостер, Калеб Лэндри Джонс, Джованни Рибизи, Дж.К. Симмонс, Лукас Хаас, Лаки Джонсон, Диего Луна, Роберт Уолберг

О фильме:
Мир контрабандистов — это большие ставки и огромный риск. Cтоит оступиться лишь раз, и тебя ждет смерть. В этом мире Крис был лучшим, его называли Гудини, но он вышел из игры, женился и начал новую жизнь… К несчастью, Энди, друг Криса, провалил одно дело. Теперь платить по счетам придется обоим. У них есть всего две недели на то, чтобы доставить из Панамы в США 15 миллионов фальшивых долларов, разделенных на 4 партии, каждая размером с Мини Купер. Не успеют — они знают правила…



Страна: США
Продолжительность: 01:49:38
Перевод: Профессиональный (дублированный)

Файл
Кодек: HEVC x265 8bit
Качество: BDRip-HEVC 1080p
Видео: 1920x816, 23.976 кадр/сек, 6230 Кбит/сек, (Main@L4.1@High), 8bit
Звук:
Аудио1: Русская, AC3 448 Кбит/сек, 6 канала(ов),16bit 48,0 КГц
Аудио2: English, AC3 448 Кбит/сек, 6 канала(ов),16bit 48,0 КГц
Субтитры: Русские форсированные, русские полные, English
Навиигация по главам: Есть

General
Unique ID : 239073626157120849797886657521713377735 (0xB3DBE7D25100C3A88B3916312E1B71C7)
Complete name : T:HDFILMSContraband (2012) BDRip 1080p [HEVC].mkv
Format : Matroska
Format version : Version 4 / Version 2
File size : 5.46 GiB
Duration : 1 h 49 min
Overall bit rate : 7 128 kb/s
Encoded date : UTC 2017-09-15 13:13:20
Writing application : mkvmerge v13.0.0 ('The Juggler') 64bit
Writing library : libebml v1.3.4 + libmatroska v1.4.5
Cover : Yes
Attachments : cover4.jpg

Video
ID : 1
Format : HEVC
Format/Info : High Efficiency Video Coding
Format profile : Main@L4.1@High
Codec ID : V_MPEGH/ISO/HEVC
Duration : 1 h 49 min
Bit rate : 6 230 kb/s
Width : 1 920 pixels
Height : 816 pixels
Display aspect ratio : 2.35:1
Frame rate mode : Constant
Frame rate : 23.976 (24000/1001) FPS
Color space : YUV
Chroma subsampling : 4:2:0
Bit depth : 8 bits
Bits/(Pixel*Frame) : 0.166
Stream size : 4.77 GiB (87%)
Writing library : x265 2.5+16-bac53338585c:[Windows][GCC 7.1.0][64 bit] 8bit
Encoding settings : cpuid=1050111 / frame-threads=5 / numa-pools=4 / wpp / no-pmode / no-pme / no-psnr / no-ssim / log-level=3 / input-csp=1 / input-res=1920x816 / interlace=0 / total-frames=0 / level-idc=41 / high-tier=1 / uhd-bd=0 / ref=4 / no-allow-non-conformance / no-repeat-headers / annexb / no-aud / no-hrd / info / hash=0 / no-temporal-layers / open-gop / min-keyint=23 / keyint=250 / bframes=10 / b-adapt=2 / b-pyramid / bframe-bias=0 / rc-lookahead=40 / lookahead-slices=5 / scenecut=40 / no-intra-refresh / ctu=64 / min-cu-size=8 / no-rect / no-amp / max-tu-size=32 / tu-inter-depth=2 / tu-intra-depth=2 / limit-tu=0 / rdoq-level=0 / dynamic-rd=0.00 / no-ssim-rd / signhide / no-tskip / nr-intra=0 / nr-inter=0 / no-constrained-intra / strong-intra-smoothing / max-merge=3 / limit-refs=3 / no-limit-modes / me=2 / subme=3 / merange=32 / temporal-mvp / weightp / weightb / no-analyze-src-pics / deblock=-3:-3 / no-sao / no-sao-non-deblock / rd=3 / no-early-skip / rskip / no-fast-intra / no-tskip-fast / no-cu-lossless / no-b-intra / no-splitrd-skip / rdpenalty=0 / psy-rd=2.00 / psy-rdoq=0.00 / no-rd-refine / analysis-reuse-mode=0 / no-lossless / cbqpoffs=0 / crqpoffs=0 / rc=crf / crf=18.0 / qcomp=0.60 / qpstep=4 / stats-write=0 / stats-read=0 / vbv-maxrate=50000 / vbv-bufsize=35714 / vbv-init=0.9 / crf-max=30.0 / crf-min=0.0 / ipratio=1.40 / pbratio=1.30 / aq-mode=2 / aq-strength=1.00 / cutree / zone-count=0 / no-strict-cbr / qg-size=32 / no-rc-grain / qpmax=69 / qpmin=0 / no-const-vbv / sar=1 / overscan=0 / videoformat=5 / range=0 / colorprim=2 / transfer=2 / colormatrix=2 / chromaloc=0 / display-window=0 / max-cll=0,0 / min-luma=0 / max-luma=255 / log2-max-poc-lsb=8 / vui-timing-info / vui-hrd-info / slices=1 / opt-qp-pps / opt-ref-list-length-pps / no-multi-pass-opt-rps / scenecut-bias=0.05 / no-opt-cu-delta-qp / no-aq-motion / no-hdr / no-hdr-opt / no-dhdr10-opt / analysis-reuse-level=5 / scale-factor=0 / refine-intra=0 / refine-inter=0 / refine-mv=0 / no-limit-sao / ctu-info=0
Language : English
Default : Yes
Forced : No

Audio #1
ID : 2
Format : AC-3
Format/Info : Audio Coding 3
Format settings, Endianness : Big
Codec ID : A_AC3
Duration : 1 h 49 min
Bit rate mode : Constant
Bit rate : 448 kb/s
Channel(s) : 6 channels
Channel positions : Front: L C R, Side: L R, LFE
Sampling rate : 48.0 kHz
Frame rate : 31.250 FPS (1536 SPF)
Bit depth : 16 bits
Compression mode : Lossy
Stream size : 351 MiB (6%)
Language : Russian
Service kind : Complete Main
Default : Yes
Forced : No

Audio #2
ID : 3
Format : AC-3
Format/Info : Audio Coding 3
Format settings, Endianness : Big
Codec ID : A_AC3
Duration : 1 h 49 min
Bit rate mode : Constant
Bit rate : 448 kb/s
Channel(s) : 6 channels
Channel positions : Front: L C R, Side: L R, LFE
Sampling rate : 48.0 kHz
Frame rate : 31.250 FPS (1536 SPF)
Bit depth : 16 bits
Compression mode : Lossy
Stream size : 351 MiB (6%)
Language : English
Service kind : Complete Main
Default : No
Forced : No

Text #1
ID : 4
Format : UTF-8
Codec ID : S_TEXT/UTF8
Codec ID/Info : UTF-8 Plain Text
Duration : 24 min 42 s
Bit rate : 6 b/s
Count of elements : 33
Stream size : 1.22 KiB (0%)
Title : rus forced
Language : Russian
Default : Yes
Forced : No

Text #2
ID : 5
Format : UTF-8
Codec ID : S_TEXT/UTF8
Codec ID/Info : UTF-8 Plain Text
Duration : 1 h 43 min
Bit rate : 87 b/s
Count of elements : 1423
Stream size : 65.9 KiB (0%)
Title : rus full
Language : Russian
Default : No
Forced : No

Text #3
ID : 6
Format : UTF-8
Codec ID : S_TEXT/UTF8
Codec ID/Info : UTF-8 Plain Text
Duration : 1 h 42 min
Bit rate : 59 b/s
Count of elements : 1497
Stream size : 44.7 KiB (0%)
Language : English
Default : No
Forced : No

Menu
00:00:00.000 : :Chapter 01
00:08:26.254 : :Chapter 02
00:14:46.259 : :Chapter 03
00:19:12.858 : :Chapter 04
00:24:52.365 : :Chapter 05
00:29:12.625 : :Chapter 06
00:34:39.744 : :Chapter 07
00:38:56.375 : :Chapter 08
00:45:36.942 : :Chapter 09
00:52:17.759 : :Chapter 10
00:59:56.092 : :Chapter 11
01:05:31.344 : :Chapter 12
01:10:03.988 : :Chapter 13
01:16:15.112 : :Chapter 14
01:21:17.372 : :Chapter 15
01:25:34.045 : :Chapter 16
01:30:15.908 : :Chapter 17
01:35:26.886 : :Chapter 18
01:39:01.143 : :Chapter 19
01:44:32.099 : :Chapter 20
01:49:38.194 : :Chapter 21



Релиз от: Cthulhu


_________________
Проголосуй за трекер Открытый торрент трекер - RUS-MEDIA.ORG

Проголосуй Открытый торрент трекер - RUS-MEDIA.ORG


Вернуться к началу
 Профиль Отправить личное сообщение  
 
   Похожие торренты   Автор   Торрент   Размер 
В этой теме нет новых непрочитанных сообщений. Контрабанда / Contraband [боевик, триллер, драма, 2012] BDRip 720p, Dub

salma3

29 | 23

5.07 ГБ

В этой теме нет новых непрочитанных сообщений. Контрабанда / Contraband [боевик, триллер, драма, криминал, 2012] BDRip 720p, Dub+Avo+Sub

salma3

108 | 33

7.63 ГБ

В этой теме нет новых непрочитанных сообщений. Контрабанда / Contraband [Боевик, триллер, драма, 2012] Blu-Ray Remux 1080p, Dub [Лицензия]

salma3

10 | 28

33.22 ГБ

В этой теме нет новых непрочитанных сообщений. На грани / Man on a Ledge [триллер, боевик, криминал, 2012] BDRip-HEVC 1080p, Dub

salma3

12 | 0

6.03 ГБ

В этой теме нет новых непрочитанных сообщений. Морской бой / Battleship [фантастика, боевик, триллер, приключения, 2012] BDRip-HEVC 1080p, Dub

salma3

123 | 42

5.98 ГБ

В этой теме нет новых непрочитанных сообщений. Стиратель / Eraser [Боевик, триллер, драма, 1996] BDRip-HEVC 1080p, Dub

salma3

28 | 5

5.32 ГБ

В этой теме нет новых непрочитанных сообщений. Васаби / Wasabi [боевик, триллер, драма, 2001] BDRip-HEVC 1080p, Dub

salma3

0 | 0

6.46 ГБ


Начать новую тему Ответить на тему  [ 1 сообщение ] 




Для Мосгорсуда, Роскомнадзора и рекламодателей:: mosgorsud-torrent[собачка]yandex.ru
cron