Торрент файл
скачать торрент магнет ссылка Добавлен: 03 дек 2017, 22:08
Размер: 7.98 ГБ
Сидеров: 5
Личеров: 9
Статус: (salma3)
Автор

СообщениеДобавлено: 03 дек 2017, 22:08 

Не в сети
Супермодератор
Аватара пользователя
Дата регистрации:
15 фев 2012, 16:44
Возраст: 29
Спасибо: 7434 / 2147
Сообщения: 80293
Год выхода: 1982
Жанр: драма, детектив
Режиссер: Гай Хэмилтон

В ролях: Питер Устинов, Джейн Биркин, Мэгги Смит, Джеймс Мэйсон, Николас Клэй, Сильвия Майлз, Родди МакДауэлл, Дайана Ригг, Джон Андерсон, Деннис Куилли, Колин Блейкли

О фильме:
Пуаро получает заказ на расследование дела о подмене ценнейшего бриллианта. Поэтому он отправляется на дивный островок посреди Адриатики, где собирается изысканная публика. Небо ясно, море прозрачно, шампанское – со льда. Но Эркюль Пуаро не рад: ему всюду под солнцем мерещится зло. И вот – убийство. У великого сыщика девять подозреваемых. У каждого – мотив. И у каждого – железное алиби. Даже Пуаро озадачен.



Страна: Великобритания
Продолжительность: 01:57:04
Перевод: Профессиональный многоголосый закадровый, профессиональный двухголосый закадровый
Субтитры: русские с озвучки ОРТ (вшитые), русские (отдельно),
английские, 2 вида (отдельно);

Файл
Кодек: x264
Качество: BDRip 1080p
Видео: AVC/H.264, 1920х1040, 9185 Kbps
Аудио 1: AC3, 2 ch, 192 Kbps, русский многоголосый закадровый (ОРТ);
Аудио 2: AC3, 2 ch, 192 Kbps, русский двухголосый закадровый (отдельно);
Аудио 3: AC3, 2 ch, 192 Kbps, оригинальный английский (отдельно);


Общее
Уникальный идентификатор : 241760355534559099547902760757579500702 (0xB5E159CE9DE259B49285BF09423C4C9E)
Полное имя : Y:ФильмыЗарубежная классикаДетективы Агаты КристиЗло под солнцем (Питер Устинов) 1982Evil Under The Sun_Зло под солнцем (1982) BDRip 1080pEvil Under The Sun_Зло под солнцем (1982) BDRip 1080p.mkv
Формат : Matroska
Версия формата : Version 4 / Version 2
Размер файла : 7,67 Гбайт
Продолжительность : 1 ч. 57 м.
Общий поток : 9379 Кбит/сек
Дата кодирования : UTC 2015-07-16 20:18:13
Программа кодирования : mkvmerge v7.1.0 ('Good Love') 64bit built on Jul 27 2014 13:06:55
Библиотека кодирования : libebml v1.3.0 + libmatroska v1.4.1
DURATION : 01:54:51.794000000
NUMBER_OF_FRAMES : 1428
NUMBER_OF_BYTES : 107411
_STATISTICS_WRITING_APP : mkvmerge v7.1.0 ('Good Love') 64bit built on Jul 27 2014 13:06:55
_STATISTICS_WRITING_DATE_UTC : 2015-07-16 20:18:13
_STATISTICS_TAGS : BPS DURATION NUMBER_OF_FRAMES NUMBER_OF_BYTES

Видео
Идентификатор : 1
Формат : AVC
Формат/Информация : Advanced Video Codec
Профиль формата : High@L4.1
Параметр CABAC формата : Да
Параметр ReFrames формата : 4 кадра
Идентификатор кодека : V_MPEG4/ISO/AVC
Продолжительность : 1 ч. 57 м.
Битрейт : 9185 Кбит/сек
Ширина : 1920 пикселей
Высота : 1040 пикселей
Соотношение сторон : 1,85:1
Режим частоты кадров : Постоянный
Частота кадров : 23,976 кадра/сек
Цветовое пространство : YUV
Субдискретизация насыщенности : 4:2:0
Битовая глубина : 8 бит
Тип развёртки : Прогрессивная
Бит/(Пиксели*Кадры) : 0.192
Размер потока : 7,36 Гбайт (96%)
Библиотека кодирования : x264 core 138 r2358 9e941d1
Настройки программы : cabac=1 / ref=4 / deblock=1:-3:-3 / analyse=0x3:0x113 / me=umh / subme=8 / psy=1 / psy_rd=1.00:0.00 / mixed_ref=1 / me_range=16 / chroma_me=1 / trellis=1 / 8x8dct=1 / cqm=0 / deadzone=21,11 / fast_pskip=1 / chroma_qp_offset=-2 / threads=12 / lookahead_threads=2 / sliced_threads=0 / nr=0 / decimate=1 / interlaced=0 / bluray_compat=0 / constrained_intra=0 / bframes=3 / b_pyramid=2 / b_adapt=2 / b_bias=0 / direct=3 / weightb=1 / open_gop=0 / weightp=2 / keyint=240 / keyint_min=24 / scenecut=40 / intra_refresh=0 / rc_lookahead=50 / rc=2pass / mbtree=1 / bitrate=9185 / ratetol=1.0 / qcomp=0.60 / qpmin=0 / qpmax=69 / qpstep=4 / cplxblur=20.0 / qblur=0.5 / ip_ratio=1.40 / aq=1:1.00
Язык : English
Default : Нет
Forced : Нет
DURATION : 01:57:04.059000000
NUMBER_OF_FRAMES : 168409
NUMBER_OF_BYTES : 8064367514
_STATISTICS_WRITING_APP : mkvmerge v7.1.0 ('Good Love') 64bit built on Jul 27 2014 13:06:55
_STATISTICS_WRITING_DATE_UTC : 2015-07-16 20:18:13
_STATISTICS_TAGS : BPS DURATION NUMBER_OF_FRAMES NUMBER_OF_BYTES

Аудио
Идентификатор : 2
Формат : AC-3
Формат/Информация : Audio Coding 3
Расширение режима : CM (complete main)
Параметр Endianness формата : Big
Идентификатор кодека : A_AC3
Продолжительность : 1 ч. 57 м.
Вид битрейта : Постоянный
Битрейт : 192 Кбит/сек
Каналы : 2 канала
Расположение каналов : Front: L R
Частота : 48,0 КГц
Битовая глубина : 16 бит
Метод сжатия : С потерями
Размер потока : 161 Мбайт (2%)
Заголовок : Многоголосый, ОРТ
Язык : Russian
Default : Да
Forced : Нет

Текст
Идентификатор : 3
Формат : UTF-8
Идентификатор кодека : S_TEXT/UTF8
Идентификатор кодека/Информация : UTF-8 Plain Text
Язык : Russian
Default : Нет
Forced : Нет

Меню
00:00:00.000 : en:00:00:00.000
00:09:38.828 : en:00:09:38.828
00:17:35.805 : en:00:17:35.805
00:29:09.665 : en:00:29:09.665
00:37:42.510 : en:00:37:42.510
00:45:36.734 : en:00:45:36.734
00:57:17.100 : en:00:57:17.100
01:06:24.522 : en:01:06:24.522
01:12:42.358 : en:01:12:42.358
01:23:07.482 : en:01:23:07.482
01:37:33.848 : en:01:37:33.848
01:48:38.262 : en:01:48:38.262




_________________
Проголосуй за трекер Открытый торрент трекер - RUS-MEDIA.ORG

Проголосуй Открытый торрент трекер - RUS-MEDIA.ORG


Вернуться к началу
 Профиль Отправить личное сообщение  
 
   Похожие торренты   Автор   Торрент   Размер 
В этой теме нет новых непрочитанных сообщений. Абсолютное зло / Meeting Evil [триллер, драма, криминал, детектив, 2012] BDRip 1080p, Dvo

salma3

34 | 19

8.97 ГБ

В этой теме нет новых непрочитанных сообщений. Пропавший без вести / Missing [драма, детектив, история, 1982] BDRip 720p, Mvo

salma3

22 | 18

5.73 ГБ

В этой теме нет новых непрочитанных сообщений. В ночной тиши / Still of the Night [Триллер, драма, криминал, детектив, 1982] BDRemux 1080p, Mvo

salma3

14 | 5

17.96 ГБ

В этой теме нет новых непрочитанных сообщений. Под солнцем Тосканы / Under the Tuscan Sun [драма, мелодрама, комедия, 2003] BDRip, Dvo

salma3

0 | 0

1.46 ГБ

В этой теме нет новых непрочитанных сообщений. 48 часов / 48 Hrs. [боевик, триллер, драма, 1982] BDRip 1080p, Mvo

salma3

0 | 0

14.49 ГБ

В этой теме нет новых непрочитанных сообщений. Утомлённые солнцем 2: Цитадель [Драма, военный, 2011] BDRemux 1080p

salma3

1 | 4

33.84 ГБ

В этой теме нет новых непрочитанных сообщений. Утомлённые солнцем 2: Цитадель [Драма, военный, 2011] BDRemux 1080p

salma3

3 | 5

18.8 ГБ


Начать новую тему Ответить на тему  [ 1 сообщение ] 




Для Мосгорсуда, Роскомнадзора и рекламодателей:: mosgorsud-torrent[собачка]yandex.ru
cron