Торрент файл
скачать торрент магнет ссылка Добавлен: 21 дек 2017, 13:00
Размер: 4.71 ГБ
Сидеров: 10
Личеров: 3
Статус: (salma3)
Автор

СообщениеДобавлено: 21 дек 2017, 13:00 

Не в сети
Супермодератор
Аватара пользователя
Дата регистрации:
15 фев 2012, 16:44
Возраст: 29
Спасибо: 7400 / 2147
Сообщения: 78391
Производство: США, Universal Pictures
Жанр: Ужасы, Триллер
Режиссер: Жаннот Шварц

Актеры: Рой Шайдер, Лоррэйн Гари, Мюррэй Хэмилтон, Джозеф Масколо, Джефри Крамер, Ann Dusenberry, Марк Грюнер, Коллин Уилкокс Пэкстон, Бэрри Коу, Сьюзэн Френч

Описание:
Акула-убийца, несколько лет назад терроризировавшая побережье курортного городка Эмити, вернулась! Гигантский хищник снова начал охоту. Рискуя жизнью, шеф полиции морского парка Мартин Броди вступает в борьбу с чудовищем. Но теперь его голод во много раз сильнее!



Продолжительность: 01:56:15
Перевод: Профессиональный многоголосый, профессиональный двухголосый, авторский
Субтитры: Русский, английский

Качество: BDRip 720p
Видео: AVC, 1280x544 (2.35:1), 23.976 fps, 4 250 Kbps (0.255 bit/pixel)
Аудио #1: AC-3, 48.0 KHz, 2 ch, 192 Kbps (Russian) - многоголосый
Аудио #2: AC-3, 48.0 KHz, 2 ch, 192 Kbps (Russian) - многоголосый #2
Аудио #3: AC-3, 48.0 KHz, 2 ch, 192 Kbps (Russian) - многоголосый СТС
Аудио #4: AC-3, 48.0 KHz, 2 ch, 192 Kbps (Russian) - двухголосый НТВ
Аудио #5: AC-3, 48.0 KHz, 2 ch, 192 Kbps (Russian) - авторский Ю.Живов
Аудио #6: AC-3, 48.0 KHz, 2 ch, 192 Kbps (Russian) - авторский А.Гаврилов / ранний
Аудио #7: AC-3, 48.0 KHz, 2 ch, 192 Kbps (Russian) - авторский А.Гаврилов / поздний
Аудио #8: AC-3, 48.0 KHz, 2 ch, 192 Kbps (English) - оригинал

Формат : Matroska
Версия формата : Version 2
Размер файла : 4,71 Гбайт
Продолжительность : 1 ч. 56 м.
Общий поток : 5804 Кбит/сек
Дата кодирования : UTC 2016-07-03 05:30:30
Программа кодирования : mkvmerge v5.3.0 ('I could have danced') built on Feb 9 2012 10:38:07
Библиотека кодирования : libebml v1.2.3 + libmatroska v1.3.0
Attachment : Yes

Видео
Идентификатор : 1
Формат : AVC
Формат/Информация : Advanced Video Codec
Профиль формата : High@L4.1
Параметр CABAC формата : Да
Параметр ReFrames формата : 9 кадров
Идентификатор кодека : V_MPEG4/ISO/AVC
Продолжительность : 1 ч. 56 м.
Битрейт : 4250 Кбит/сек
Ширина : 1280 пикселей
Высота : 544 пикселя
Соотношение сторон : 2,35:1
Режим частоты кадров : Постоянный
Частота кадров : 23,976 кадра/сек
Цветовое пространство : YUV
Субдискретизация насыщенности : 4:2:0
Битовая глубина : 8 бит
Тип развёртки : Прогрессивная
Бит/(Пиксели*Кадры) : 0.255
Размер потока : 3,37 Гбайт (72%)
Библиотека кодирования : x264 core 146 r2538 121396c
Настройки программы : cabac=1 / ref=9 / deblock=1:-2:-2 / analyse=0x3:0x133 / me=umh / subme=10 / psy=1 / psy_rd=1.00:0.10 / mixed_ref=1 / me_range=32 / chroma_me=1 / trellis=2 / 8x8dct=1 / cqm=0 / deadzone=21,11 / fast_pskip=0 / chroma_qp_offset=-3 / threads=12 / lookahead_threads=2 / sliced_threads=0 / nr=0 / decimate=0 / interlaced=0 / bluray_compat=0 / constrained_intra=0 / bframes=8 / b_pyramid=2 / b_adapt=2 / b_bias=0 / direct=3 / weightb=1 / open_gop=0 / weightp=2 / keyint=240 / keyint_min=23 / scenecut=40 / intra_refresh=0 / rc_lookahead=40 / rc=2pass / mbtree=0 / bitrate=4250 / ratetol=1.0 / qcomp=0.60 / qpmin=0 / qpmax=69 / qpstep=4 / cplxblur=20.0 / qblur=0.5 / vbv_maxrate=50000 / vbv_bufsize=62500 / nal_hrd=none / filler=0 / ip_ratio=1.40 / pb_ratio=1.30 / aq=1:0.90
Язык : English
Default : Да
Forced : Нет

Аудио #1
Идентификатор : 2
Формат : AC-3
Формат/Информация : Audio Coding 3
Расширение режима : CM (complete main)
Параметр Endianness формата : Big
Идентификатор кодека : A_AC3
Продолжительность : 1 ч. 56 м.
Вид битрейта : Постоянный
Битрейт : 192 Кбит/сек
Каналы : 2 канала
Расположение каналов : Front: L R
Частота : 48,0 КГц
Битовая глубина : 16 бит
Метод сжатия : С потерями
Размер потока : 160 Мбайт (3%)
Заголовок : Многоголосый закадровый
Язык : Russian
Default : Да
Forced : Нет

Аудио #2
Идентификатор : 3
Формат : AC-3
Формат/Информация : Audio Coding 3
Расширение режима : CM (complete main)
Параметр Endianness формата : Big
Идентификатор кодека : A_AC3
Продолжительность : 1 ч. 56 м.
Вид битрейта : Постоянный
Битрейт : 192 Кбит/сек
Каналы : 2 канала
Расположение каналов : Front: L R
Частота : 48,0 КГц
Битовая глубина : 16 бит
Метод сжатия : С потерями
Размер потока : 160 Мбайт (3%)
Заголовок : Многоголосый закадровый#2
Язык : Russian
Default : Нет
Forced : Нет

Аудио #3
Идентификатор : 4
Формат : AC-3
Формат/Информация : Audio Coding 3
Расширение режима : CM (complete main)
Параметр Endianness формата : Big
Идентификатор кодека : A_AC3
Продолжительность : 1 ч. 56 м.
Вид битрейта : Постоянный
Битрейт : 192 Кбит/сек
Каналы : 2 канала
Расположение каналов : Front: L R
Частота : 48,0 КГц
Битовая глубина : 16 бит
Метод сжатия : С потерями
Размер потока : 160 Мбайт (3%)
Заголовок : Многоголосый закадровый, CTC
Язык : Russian
Default : Нет
Forced : Нет

Аудио #4
Идентификатор : 5
Формат : AC-3
Формат/Информация : Audio Coding 3
Расширение режима : CM (complete main)
Параметр Endianness формата : Big
Идентификатор кодека : A_AC3
Продолжительность : 1 ч. 56 м.
Вид битрейта : Постоянный
Битрейт : 192 Кбит/сек
Каналы : 2 канала
Расположение каналов : Front: L R
Частота : 48,0 КГц
Битовая глубина : 16 бит
Метод сжатия : С потерями
Размер потока : 160 Мбайт (3%)
Заголовок : Двухголосый закадровый, НТВ
Язык : Russian
Default : Нет
Forced : Нет

Аудио #5
Идентификатор : 6
Формат : AC-3
Формат/Информация : Audio Coding 3
Расширение режима : CM (complete main)
Параметр Endianness формата : Big
Идентификатор кодека : A_AC3
Продолжительность : 1 ч. 56 м.
Вид битрейта : Постоянный
Битрейт : 192 Кбит/сек
Каналы : 2 канала
Расположение каналов : Front: L R
Частота : 48,0 КГц
Битовая глубина : 16 бит
Метод сжатия : С потерями
Размер потока : 160 Мбайт (3%)
Заголовок : Одноголосый закадровый, Ю.Живов
Язык : Russian
Default : Нет
Forced : Нет

Аудио #6
Идентификатор : 7
Формат : AC-3
Формат/Информация : Audio Coding 3
Расширение режима : CM (complete main)
Параметр Endianness формата : Big
Идентификатор кодека : A_AC3
Продолжительность : 1 ч. 56 м.
Вид битрейта : Постоянный
Битрейт : 192 Кбит/сек
Каналы : 2 канала
Расположение каналов : Front: L R
Частота : 48,0 КГц
Битовая глубина : 16 бит
Метод сжатия : С потерями
Размер потока : 160 Мбайт (3%)
Заголовок : Одноголосый закадровый, А.Гаврилов-ранний
Язык : Russian
Default : Нет
Forced : Нет

Аудио #7
Идентификатор : 8
Формат : AC-3
Формат/Информация : Audio Coding 3
Расширение режима : CM (complete main)
Параметр Endianness формата : Big
Идентификатор кодека : A_AC3
Продолжительность : 1 ч. 56 м.
Вид битрейта : Постоянный
Битрейт : 192 Кбит/сек
Каналы : 2 канала
Расположение каналов : Front: L R
Частота : 48,0 КГц
Битовая глубина : 16 бит
Метод сжатия : С потерями
Размер потока : 160 Мбайт (3%)
Заголовок : Одноголосый закадровый, А.Гаврилов-поздний
Язык : Russian
Default : Нет
Forced : Нет

Аудио #8
Идентификатор : 9
Формат : AC-3
Формат/Информация : Audio Coding 3
Расширение режима : CM (complete main)
Параметр Endianness формата : Big
Идентификатор кодека : A_AC3
Продолжительность : 1 ч. 56 м.
Вид битрейта : Постоянный
Битрейт : 192 Кбит/сек
Каналы : 2 канала
Расположение каналов : Front: L R
Частота : 48,0 КГц
Битовая глубина : 16 бит
Метод сжатия : С потерями
Размер потока : 160 Мбайт (3%)
Язык : English
Default : Нет
Forced : Нет

Текст #1
Идентификатор : 10
Формат : PGS
Режим смешивания : zlib
Идентификатор кодека : S_HDMV/PGS
Идентификатор кодека/Информация : The same subtitle format used on BDs/HD-DVDs
Язык : Russian
Default : Да
Forced : Нет

Текст #2
Идентификатор : 11
Формат : PGS
Режим смешивания : zlib
Идентификатор кодека : S_HDMV/PGS
Идентификатор кодека/Информация : The same subtitle format used on BDs/HD-DVDs
Язык : English
Default : Нет
Forced : Нет

Меню
00:00:00.000 : :Chapter 01
00:02:05.125 : :Chapter 02
00:04:50.038 : :Chapter 03
00:12:29.455 : :Chapter 04
00:18:15.969 : :Chapter 05
00:27:26.809 : :Chapter 06
00:34:28.023 : :Chapter 07
00:41:00.791 : :Chapter 08
00:56:59.873 : :Chapter 09
01:01:30.518 : :Chapter 10
01:11:55.225 : :Chapter 11
01:16:27.872 : :Chapter 12
01:22:33.198 : :Chapter 13
01:29:46.506 : :Chapter 14
01:41:16.904 : :Chapter 15
01:43:14.395 : :Chapter 16
01:48:01.515 : :Chapter 17
01:53:29.719 : :Chapter 18
01:56:15.216 : :Chapter 19


_________________
Проголосуй за трекер Открытый торрент трекер - RUS-MEDIA.ORG

Проголосуй Открытый торрент трекер - RUS-MEDIA.ORG


Вернуться к началу
 Профиль Отправить личное сообщение  
 
   Похожие торренты   Автор   Торрент   Размер 
В этой теме нет новых непрочитанных сообщений. Челюсти 2 / Jaws 2 [Ужасы, триллер, 1978] HDRip, Mvo

salma3

8 | 3

746.68 МБ

В этой теме нет новых непрочитанных сообщений. Челюсти 2 / Jaws 2 [Ужасы, триллер, 1978] HDRip, Mvo

salma3

0 | 0

1.46 ГБ

В этой теме нет новых непрочитанных сообщений. Челюсти / Jaws [Ужасы, триллер, приключения, 1975] BDRip 720p, Mvo

salma3

0 | 0

7.76 ГБ

В этой теме нет новых непрочитанных сообщений. Челюсти 3 / Jaws 3-D [Ужасы, Триллер, Приключения, 1983] BDRip 720p, Mvo

salma3

10 | 6

4.37 ГБ

В этой теме нет новых непрочитанных сообщений. Челюсти 4: Месть / Jaws 4: The Revenge [Ужасы, Триллер, Приключения, 1987] BDRip 720p, Mvo

salma3

7 | 7

3.85 ГБ

В этой теме нет новых непрочитанных сообщений. Челюсти / Jaws [триллер, приключения, ужасы, 1975] BDRip-AVC, Mvo

salma3

78 | 18

1.45 ГБ

В этой теме нет новых непрочитанных сообщений. Челюсти 4: Месть / Jaws 4: The Revenge [Триллер, 1987] BDRemux 1080p, Mvo+Sub

salma3

6 | 0

23.36 ГБ


Начать новую тему Ответить на тему  [ 1 сообщение ] 




Для Мосгорсуда, Роскомнадзора и рекламодателей:: mosgorsud-torrent[собачка]yandex.ru
cron