Торрент файл
скачать торрент магнет ссылка Добавлен: 22 дек 2017, 21:08
Размер: 5.3 ГБ
Сидеров: 9
Личеров: 4
Статус: (salma3)
Автор

СообщениеДобавлено: 22 дек 2017, 21:08 

Не в сети
Супермодератор
Аватара пользователя
Дата регистрации:
15 фев 2012, 16:44
Возраст: 29
Спасибо: 7400 / 2147
Сообщения: 78352
Страна: США, Испания, Antena 3 Televisión, Fox Searchlight Pictures, Lolafilms S.A.
Жанр: Драма
Год выпуска: 2002
Продолжительность: 02:13:09
Перевод: Профессиональный многоголосый

Режиссер: Джон Малкович
В ролях: Хавьер Бардем, Хуан Диего Ботто, Лаура Моранте, Эльвира Мингез, Александра Ленкастре, Оливер Коттон, Луис Мигель Синтра, Хавьер Манрике, Абель Фолк, Мэри-Энн Берганза

Описание: Перед офицером полиции Агустином Рехасом стоит практически невыполнимая задача: найти и обезвредить лидера террористической группировки Иезекиля, с маниакальной жестокостью ведущего войну против правительства. Кажется, что Иезекиль присутствует везде и в то же время нигде. Никто не может чувствовать себя в безопасности перед "революционным" террором, даже после введения в стране военного положения. Смертельно уставший Агустин ищет покоя в доме учительницы танцев своей дочери Иоланды. Она вновь зажигает в нем огонь давно забытой страсти. Но любовь, которая должна была укрыть Агустина от бури, вовлекает его в самый ее эпицентр.



Кодек: х264
Качество: WEB DLRip 720p
Видео: MPEG-4 AVC, 1280х720, 25 fps, 4800 Кбит/с
Аудио 1: Профессиональный (многоголосый закадровый) (AC3, 48000 Hz, 6 ch, 448 Кбит/с)
Аудио 2: Английский (AC3, 48000 Hz, 2 ch, 448 Кбит/с)
Субтитры: Pусские, Английские

x264 [info]: frame I:1256 Avg QP:15.24 size:142701
x264 [info]: frame P:42575 Avg QP:18.70 size: 50877
x264 [info]: frame B:147704 Avg QP:20.41 size: 16575

Общее
Уникальный идентификатор : 202570519451945661257443360324753189538 (0x9865A9B589056B87B86F2D686FEE6AA2)
Полное имя : E:Мои рипыТанцующая наверху 2002_WEB DLRip 720_KORSAR.mkv
Формат : Matroska
Версия формата : Version 2
Размер файла : 5,30 Гбайт
Продолжительность : 2 ч. 13 м.
Общий поток : 5699 Кбит/сек
Дата кодирования : UTC 2017-12-21 23:47:12
Программа кодирования : mkvmerge v5.8.0 ('No Sleep / Pillow') built on Sep 2 2012 15:37:04
Библиотека кодирования : libebml v1.2.3 + libmatroska v1.3.0

Видео
Идентификатор : 1
Формат : AVC
Формат/Информация : Advanced Video Codec
Профиль формата : High@L4.1
Настройки формата : CABAC / 9 Ref Frames
Параметр CABAC формата : Да
Параметр RefFrames формата : 9 кадров
Идентификатор кодека : V_MPEG4/ISO/AVC
Продолжительность : 2 ч. 13 м.
Битрейт : 4800 Кбит/сек
Ширина : 1280 пикселей
Высота : 720 пикселей
Соотношение сторон : 16:9
Режим частоты кадров : Постоянный
Частота кадров : 23,976 (24000/1001) кадра/сек
Цветовое пространство : YUV
Субдискретизация насыщенности : 4:2:0
Битовая глубина : 8 бит
Тип развёртки : Прогрессивная
Бит/(Пиксели*Кадры) : 0.217
Размер потока : 4,36 Гбайт (82%)
Библиотека кодирования : x264 core 152 r2851kMod ba24899
Настройки программы : cabac=1 / ref=9 / deblock=1:-2:-1 / analyse=0x3:0x113 / me=umh / subme=11 / psy=1 / fade_compensate=0.00 / psy_rd=1.05:0.10 / mixed_ref=1 / me_range=48 / chroma_me=1 / trellis=2 / 8x8dct=1 / cqm=0 / deadzone=21,11 / fast_pskip=0 / chroma_qp_offset=-3 / threads=12 / lookahead_threads=3 / sliced_threads=0 / nr=0 / decimate=0 / interlaced=0 / bluray_compat=0 / constrained_intra=0 / bframes=10 / b_pyramid=2 / b_adapt=2 / b_bias=0 / direct=3 / weightb=1 / open_gop=0 / weightp=2 / keyint=240 / keyint_min=23 / scenecut=40 / intra_refresh=0 / rc_lookahead=40 / rc=2pass / mbtree=0 / bitrate=4800 / ratetol=1.0 / qcomp=0.60 / qpmin=0 / qpmax=39 / qpstep=4 / cplxblur=20.0 / qblur=0.5 / vbv_maxrate=50000 / vbv_bufsize=62500 / nal_hrd=none / filler=0 / ip_ratio=1.40 / pb_ratio=1.30 / aq=1:1.00
Язык : English
Default : Да
Forced : Нет
Цветовой диапазон : Limited
Основные цвета : BT.709
Характеристики трансфера : BT.709
Коэффициенты матрицы : BT.709

Аудио #1
Идентификатор : 2
Формат : AC-3
Формат/Информация : Audio Coding 3
Параметр Endianness формата : Big
Идентификатор кодека : A_AC3
Продолжительность : 2 ч. 13 м.
Вид битрейта : Постоянный
Битрейт : 448 Кбит/сек
Каналы : 6 каналов
Расположение каналов : Front: L C R, Side: L R, LFE
Частота : 48,0 КГц
Частота кадров : 31,250 кадров/сек (1536 SPF)
Битовая глубина : 16 бит
Метод сжатия : С потерями
Размер потока : 427 Мбайт (8%)
Заголовок : MVO
Язык : Russian
Default : Да
Forced : Нет

Аудио #2
Идентификатор : 3
Формат : AC-3
Формат/Информация : Audio Coding 3
Параметр Endianness формата : Big
Идентификатор кодека : A_AC3
Продолжительность : 2 ч. 13 м.
Вид битрейта : Постоянный
Битрейт : 448 Кбит/сек
Каналы : 6 каналов
Расположение каналов : Front: L C R, Side: L R, LFE
Частота : 48,0 КГц
Частота кадров : 31,250 кадров/сек (1536 SPF)
Битовая глубина : 16 бит
Метод сжатия : С потерями
Размер потока : 427 Мбайт (8%)
Язык : English
Default : Нет
Forced : Нет

Текст #1
Идентификатор : 4
Формат : UTF-8
Идентификатор кодека : S_TEXT/UTF8
Идентификатор кодека/Информация : UTF-8 Plain Text
Язык : Russian
Default : Да
Forced : Нет

Текст #2
Идентификатор : 5
Формат : UTF-8
Идентификатор кодека : S_TEXT/UTF8
Идентификатор кодека/Информация : UTF-8 Plain Text
Язык : English
Default : Нет
Forced : Нет




_________________
Проголосуй за трекер Открытый торрент трекер - RUS-MEDIA.ORG

Проголосуй Открытый торрент трекер - RUS-MEDIA.ORG


Вернуться к началу
 Профиль Отправить личное сообщение  
 
   Похожие торренты   Автор   Торрент   Размер 
В этой теме нет новых непрочитанных сообщений. Танцующая наверху / The Dancer Upstairs [триллер, драма, криминал, 2002] WEB-DLRip-AVC, Mvo+Sub

salma3

48 | 12

2.18 ГБ

В этой теме нет новых непрочитанных сообщений. Танцующая наверху / The Dancer Upstairs [триллер, драма, криминал, 2002] WEB-DLRip, Mvo

salma3

33 | 15

2.18 ГБ

В этой теме нет новых непрочитанных сообщений. Танцующая наверху / The Dancer Upstairs [триллер, драма, криминал, 2002] WEB-DL 1080p, Mvo+Sub

salma3

76 | 35

10.01 ГБ

В этой теме нет новых непрочитанных сообщений. Под прицелом / Liberty Stands Still [Триллер, драма, 2002] WEB-DL 720р, Mvo+Sub

salma3

64 | 14

3.42 ГБ

В этой теме нет новых непрочитанных сообщений. До свидания там, наверху / Au revoir lа-haut [драма, криминал, 2017] HDRip, Dub [Tunes]

salma3

649 | 207

2.05 ГБ

В этой теме нет новых непрочитанных сообщений. Кому-то там наверху я нравлюсь / Lang man feng bao [боевик, драма, 1996] DVDRip, Avo

salma3

21 | 4

1.46 ГБ

В этой теме нет новых непрочитанных сообщений. До свидания там, наверху / Au revoir lа-haut [драма, криминал, 2017] BDRip 1080p, Dub [Tunes]

salma3

105 | 109

9.16 ГБ


Начать новую тему Ответить на тему  [ 1 сообщение ] 




Для Мосгорсуда, Роскомнадзора и рекламодателей:: mosgorsud-torrent[собачка]yandex.ru
cron