Торрент файл
скачать торрент магнет ссылка Добавлен: 24 дек 2017, 03:38
Размер: 78.32 ГБ
Сидеров: 9
Личеров: 10
Статус: (salma3)
Автор

СообщениеДобавлено: 24 дек 2017, 03:38 

Не в сети
Супермодератор
Аватара пользователя
Дата регистрации:
15 фев 2012, 16:44
Возраст: 29
Спасибо: 7400 / 2147
Сообщения: 78391
Год выхода: 2012
Жанр: Боевик, триллер, драма, исторический
Режиссер: Кэтрин Бигелоу

В ролях: Джессика Честейн, Джейсон Кларк, Джоэл Эдгертон, Дженнифер Или, Марк Стронг, Кайл Чандлер, Эдгар Рамирес, Джеймс Гандольфини, Крис Прэтт, Каллэн Мулвей, Акин Гази

О фильме:
Фильм затрагивает хронику событий охоты на самого опасного террориста в мире Усаму бен Ладена. Вступительные кадры демонстрируют шок нации после трагедии 11 сентября 2001 года, а финальные, снятые, по большей части, в стиле ночного видения — убийство бен Ладена группой «Морских котиков» США. Центральная героиня Майя одержима поисками преступника, его устранение было её единственной целью со времён средней школы, когда девушка была завербована в учреждение, непосредственно занимающееся расследованием 9/11. Именно она приведёт родную страну к победе над основным источником терроризма.



Страна: США
Продолжительность: 02:36:59
Перевод(ы): Дублированный | R5
#2: Авторский | Живов

Файл
Качество: BDRemux 2160p
Видео: MPEG-H HEVC HDR Video, 3840x2160, 62.4 Mbit/s, 23.976 fps
Звук:
Аудио #01: 48 kHz, AC3, 5.1, 448 Kbps | Дублированный | RUS |
Аудио #02: 48 kHz, DTS-HD MA, 5.1, 3554 Kbps | Авторский | RUS |
Аудио #03: 48 kHz, TrueHD, 7.1, 4311 Kbps | Оригинал | ENG |
Аудио #04: 48 kHz, AC3, 5.1, 640 Kbps | Оригинал | ENG |
Субтитры: Русские (full), английские

General
Unique ID : 267971440088649759216013155238690887261 (0xC9996C0CD3CE43B7FBE8D473E2DB165D)
Complete name : G:VideoSSDZero.Dark.Thirty.2012.BDREMUX.2160p.4K.UltraHD.HEVC.HDR.ExKinoRay.mkv
Format : Matroska
Format version : Version 4 / Version 2
File size : 78.3 GiB
Duration : 2 h 36 min
Overall bit rate mode : Variable
Overall bit rate : 71.4 Mb/s
Movie name : Zero Dark Thirty 2012 from ExKinoRay
Encoded date : UTC 2017-12-23 22:24:46
Writing application : mkvmerge v19.0.0 ('Brave Captain') 64-bit
Writing library : libebml v1.3.5 + libmatroska v1.4.8

Video
ID : 1
Format : HEVC
Format/Info : High Efficiency Video Coding
Format profile : Main 10@L5.1@High
Codec ID : V_MPEGH/ISO/HEVC
Duration : 2 h 36 min
Bit rate : 62.4 Mb/s
Width : 3 840 pixels
Height : 2 160 pixels
Display aspect ratio : 16:9
Frame rate mode : Constant
Frame rate : 23.976 (24000/1001) FPS
Color space : YUV
Chroma subsampling : 4:2:0 (Type 2)
Bit depth : 10 bits
Bits/(Pixel*Frame) : 0.314
Stream size : 68.4 GiB (87%)
Language : English
Default : Yes
Forced : No
Color range : Limited
Color primaries : BT.2020
Transfer characteristics : PQ
Matrix coefficients : BT.2020 non-constant
Mastering display color pri : R: x=0.680000 y=0.320000, G: x=0.265000 y=0.690000, B: x=0.150000 y=0.060000, White point: x=0.312700 y=0.329000
Mastering display luminance : min: 0.0050 cd/m2, max: 4000.0000 cd/m2
Maximum Content Light Level : 1613 cd/m2
Maximum Frame-Average Light : 709 cd/m2

Audio #1
ID : 2
Format : AC-3
Format/Info : Audio Coding 3
Codec ID : A_AC3
Duration : 2 h 36 min
Bit rate mode : Constant
Bit rate : 448 kb/s
Channel(s) : 6 channels
Channel positions : Front: L C R, Side: L R, LFE
Sampling rate : 48.0 kHz
Frame rate : 31.250 FPS (1536 SPF)
Bit depth : 16 bits
Compression mode : Lossy
Stream size : 503 MiB (1%)
Title : Dub
Language : Russian
Service kind : Complete Main
Default : Yes
Forced : Yes

Audio #2
ID : 3
Format : DTS
Format/Info : Digital Theater Systems
Format profile : MA / Core
Codec ID : A_DTS
Duration : 2 h 36 min
Bit rate mode : Variable / Constant
Bit rate : 3 554 kb/s / 1 509 kb/s
Channel(s) : 6 channels
Channel positions : Front: L C R, Side: L R, LFE
Sampling rate : 48.0 kHz
Frame rate : 93.750 FPS (512 SPF)
Bit depth : 24 bits
Compression mode : Lossless / Lossy
Stream size : 3.90 GiB (5%)
Title : AVO
Language : Russian
Default : No
Forced : No

Audio #3
ID : 4
Format : TrueHD
Format profile : TrueHD+Atmos / TrueHD
Codec ID : A_TRUEHD
Duration : 2 h 36 min
Bit rate mode : Variable
Bit rate : 4 311 kb/s
Maximum bit rate : 8 862 kb/s
Channel(s) : Object Based / 8 channels
Channel positions : Object Based / Front: L C R, Side: L R, Back: L R, LFE
Sampling rate : / 48.0 kHz
Frame rate : 1 200.000 FPS (40 SPF)
Compression mode : Lossless
Stream size : 4.73 GiB (6%)
Title : Original
Language : English
Default : No
Forced : No

Audio #4
ID : 5
Format : AC-3
Format/Info : Audio Coding 3
Codec ID : A_AC3
Duration : 2 h 36 min
Bit rate mode : Constant
Bit rate : 640 kb/s
Channel(s) : 6 channels
Channel positions : Front: L C R, Side: L R, LFE
Sampling rate : 48.0 kHz
Frame rate : 31.250 FPS (1536 SPF)
Bit depth : 16 bits
Compression mode : Lossy
Stream size : 719 MiB (1%)
Language : English
Service kind : Complete Main
Default : No
Forced : No

Text #1
ID : 6
Format : UTF-8
Codec ID : S_TEXT/UTF8
Codec ID/Info : UTF-8 Plain Text
Duration : 2 h 28 min
Bit rate : 85 b/s
Count of elements : 1688
Stream size : 92.4 KiB (0%)
Title : Full
Language : Russian
Default : No
Forced : No

Text #2
ID : 7
Format : UTF-8
Codec ID : S_TEXT/UTF8
Codec ID/Info : UTF-8 Plain Text
Duration : 2 h 28 min
Bit rate : 55 b/s
Count of elements : 1697
Stream size : 60.3 KiB (0%)
Title : Full
Language : English
Default : No
Forced : No

Menu
00:00:00.000 : en:00:00:00.000
00:09:50.298 : en:00:09:50.298
00:15:42.650 : en:00:15:42.650
00:23:05.884 : en:00:23:05.884
00:31:23.048 : en:00:31:23.048
00:41:35.201 : en:00:41:35.201
00:50:30.694 : en:00:50:30.694
01:04:11.806 : en:01:04:11.806
01:13:37.705 : en:01:13:37.705
01:20:27.656 : en:01:20:27.656
01:34:05.849 : en:01:34:05.849
01:46:46.191 : en:01:46:46.191
01:53:17.332 : en:01:53:17.332
02:02:37.725 : en:02:02:37.725
02:14:08.874 : en:02:14:08.874
02:22:34.588 : en:02:22:34.588


Релиз от: Автор релиза:


_________________
Проголосуй за трекер Открытый торрент трекер - RUS-MEDIA.ORG

Проголосуй Открытый торрент трекер - RUS-MEDIA.ORG


Вернуться к началу
 Профиль Отправить личное сообщение  
 
   Похожие торренты   Автор   Торрент   Размер 
В этой теме нет новых непрочитанных сообщений. Темный рыцарь: Возрождение легенды / The Dark Knight Rises [Фантастика, боевик, триллер, 2012] BDRemux 2160p, Dub [4K] [IMAX]

salma3

0 | 1

85.07 ГБ

В этой теме нет новых непрочитанных сообщений. Судья Дредд / Dredd [Фантастика, боевик, триллер, 2012] BDRemux 2160p, Dub [4K] [Лицензия]

salma3

3 | 40

63.21 ГБ

В этой теме нет новых непрочитанных сообщений. Джой / Joy [Драма, комедия, биография, исторический, 2015] UHD BDRemux 2160p, Dub [4K] [Лицензия]

salma3

9 | 2

41.03 ГБ

В этой теме нет новых непрочитанных сообщений. Союзники / Allied [боевик, триллер, драма, 2016] UHD BDRemux 2160p, Dub+Sub [Лицензия] [ 4K]

salma3

6 | 11

61.26 ГБ

В этой теме нет новых непрочитанных сообщений. Расплата / The Accountant [Боевик, триллер, драма, криминал, 2016] UHD BDRemux 2160p, Dub [4K ][Лицензия]

salma3

42 | 36

54.13 ГБ

В этой теме нет новых непрочитанных сообщений. Логан / Logan [Фантастика, боевик, триллер, драма, 2017] UHD BDRemux 2160p, Dub [4K] [Лицензия]

salma3

38 | 15

49.21 ГБ

В этой теме нет новых непрочитанных сообщений. Форсаж 6 / Furious 6 [Боевик, драма, криминал, триллер, 2013] UHD BDRemux 2160p, Dub [4K] [Лицензия]

salma3

2 | 10

47.75 ГБ


Начать новую тему Ответить на тему  [ 1 сообщение ] 




Для Мосгорсуда, Роскомнадзора и рекламодателей:: mosgorsud-torrent[собачка]yandex.ru
cron