Торрент файл
скачать торрент магнет ссылка Добавлен: 25 дек 2017, 22:26
Размер: 17.85 ГБ
Сидеров: 26
Личеров: 10
Статус: (salma3)
Автор

СообщениеДобавлено: 25 дек 2017, 22:26 

Не в сети
Супермодератор
Аватара пользователя
Дата регистрации:
15 фев 2012, 16:44
Возраст: 29
Спасибо: 7428 / 2147
Сообщения: 80186
Год выхода: 2010
Жанр: ужасы, фантастика, боевик, триллер
Режиссер: Питер Атенсио

В ролях: Уильям Форсайт, Стэйси Хиннен, Сара Лэйн, Маркус Т. Полк, Кармен Перез, Дэн Бенсон, Роберт Закар, Скотт Мартин, Даррен Скотт

Описание: Во время шторма команда буровой установки пытается спастись от страшного существа, чье спокойствие они потревожили.



Страна: США
Продолжительность: 01:34:13
Перевод: Любительский (двухголосый закадровый) Пираты
Субтитры: Английские

Файл
Качество: BDRemux 1080р
Видео: MPEG-4 AVC Video / 24573 kbps / 1920x1080p / 23,976 fps / 16:9 / High Profile 4.1
Аудио 1: Русский / Dolby Digital Audio / 448 kbps / 5.1 / 48 kHz / 16-bit / Пираты
Аудио 2: English / DTS-HD Master Audio / 2100 kbps / 5.1 / 48 kHz / 16-bit (DTS Core: 5.1 / 48 kHz / 1152 kbps / 16-bit) / Оригинал

General
Unique ID : 202509359154036169515303605195289189430 (0x9859E2460C34B8939E03016AB2F8DC36)
Complete name : Буровая (The Rig) 2010, США, ужасы, фантастика, боевик, триллер, BDRemux 1080p GORENOISE.mkv
Format : Matroska
Format version : Version 4 / Version 2
File size : 17.9 GiB
Duration : 1h 34mn
Overall bit rate mode : Variable
Overall bit rate : 27.1 Mbps
Movie name : GORENOISE
Encoded date : UTC 2010-02-22 21:41:31
Writing application : mkvmerge v5.9.0 ('On The Loose') built on Dec 9 2012 15:37:01
Writing library : libebml v1.3.0 + libmatroska v1.4.0

Video #1
ID : 1
Format : AVC
Format/Info : Advanced Video Codec
Format profile : High@L4.1
Format settings, CABAC : Yes
Format settings, ReFrames : 2 frames
Codec ID : V_MPEG4/ISO/AVC
Duration : 1h 34mn
Bit rate mode : Variable
Bit rate : 24.9 Mbps
Width : 1 920 pixels
Height : 1 080 pixels
Display aspect ratio : 16:9
Frame rate mode : Constant
Frame rate : 23.976 fps
Color space : YUV
Chroma subsampling : 4:2:0
Bit depth : 8 bits
Scan type : Progressive
Bits/(Pixel*Frame) : 0.502
Stream size : 16.4 GiB (92%)
Title : GORENOISE
Language : English
Default : Yes
Forced : No

Audio #2
ID : 2
Format : AC-3
Format/Info : Audio Coding 3
Mode extension : CM (complete main)
Format settings, Endianness : Big
Codec ID : A_AC3
Duration : 1h 34mn
Bit rate mode : Constant
Bit rate : 448 Kbps
Channel(s) : 6 channels
Channel positions : Front: L C R, Side: L R, LFE
Sampling rate : 48.0 KHz
Bit depth : 16 bits
Compression mode : Lossy
Stream size : 302 MiB (2%)
Title : Профессиональный (двухголосый закадровый)
Language : Russian
Default : Yes
Forced : No

Audio #3
ID : 3
Format : DTS
Format/Info : Digital Theater Systems
Format profile : MA / Core
Codec ID : A_DTS
Duration : 1h 34mn
Bit rate mode : Variable
Bit rate : 1 203 Kbps / 1 152 Kbps
Channel(s) : 6 channels
Channel positions : Front: L C R, Side: L R, LFE
Sampling rate : 48.0 KHz
Bit depth : 16 bits
Compression mode : Lossless / Lossy
Title : Оригинал
Language : English
Default : No
Forced : No

Text #4
ID : 4
Format : UTF-8
Codec ID : S_TEXT/UTF8
Codec ID/Info : UTF-8 Plain Text
Language : English
Default : No
Forced : No

Menu
00:00:00.000 : :1
00:05:00.447 : :2
00:10:00.931 : :3
00:15:00.223 : :4
00:20:00.790 : :5
00:25:00.567 : :6
00:30:00.111 : :7
00:35:00.459 : :8
00:40:00.295 : :9
00:45:00.334 : :10
00:50:00.776 : :11
00:55:00.373 : :12
01:00:00.554 : :13
01:05:00.888 : :14
01:10:00.596 : :15
01:15:00.450 : :16
01:20:00.100 : :17
01:25:00.669 : :18
01:30:00.206 : :19


_________________
Проголосуй за трекер Открытый торрент трекер - RUS-MEDIA.ORG

Проголосуй Открытый торрент трекер - RUS-MEDIA.ORG


Вернуться к началу
 Профиль Отправить личное сообщение  
 
   Похожие торренты   Автор   Торрент   Размер 
В этой теме нет новых непрочитанных сообщений. Бог велел мне / God Told Me To [Ужасы, триллер, фантастика, 1976] BDRemux 1080р, Avo

salma3

0 | 0

22.31 ГБ

В этой теме нет новых непрочитанных сообщений. Бог велел мне / God Told Me To [ужасы, фантастика, триллер, 1976] BDRemux 1080р, Avo

salma3

26 | 7

20.11 ГБ

В этой теме нет новых непрочитанных сообщений. Нечто / The Thing [Ужасы, фантастика, триллер, 2011] BDRemux 1080р, Dub

salma3

7 | 5

35.32 ГБ

В этой теме нет новых непрочитанных сообщений. Возвращённые / The Returned [ужасы, фантастика, триллер, драма, 2013] BDRemux 1080р, Dvo

salma3

55 | 42

15.83 ГБ

В этой теме нет новых непрочитанных сообщений. Сканнеры / Scanners [ужасы, фантастика, триллер, 1981] BDRemux 1080р, Dvo [Criterion Collection]

salma3

0 | 0

26.6 ГБ

В этой теме нет новых непрочитанных сообщений. Замученный / The Tortured [ужасы, триллер, драма, 2010] BDRemux 1080р, Mvo

salma3

10 | 3

17.03 ГБ

В этой теме нет новых непрочитанных сообщений. К.Г.П.О. / C.H.U.D. [ужасы, фантастика, 1984] BDRemux 1080р, Avo

salma3

0 | 0

20.86 ГБ


Начать новую тему Ответить на тему  [ 1 сообщение ] 




Для Мосгорсуда, Роскомнадзора и рекламодателей:: mosgorsud-torrent[собачка]yandex.ru
cron