Торрент файл
скачать торрент магнет ссылка Добавлен: 02 янв 2018, 21:55
Размер: 10.11 ГБ
Сидеров: 19
Личеров: 12
Статус: (salma3)
Автор

СообщениеДобавлено: 02 янв 2018, 21:55 

В сети
Супермодератор
Аватара пользователя
Дата регистрации:
15 фев 2012, 16:44
Возраст: 29
Спасибо: 7401 / 2147
Сообщения: 78442
Страна: Германия, США
Жанр: боевик, триллер, комедия
Год выпуска: 2008
Продолжительность: 01:37:01

Перевод: Профессиональный (дублированный)
Перевод 2: Профессиональный (двухголосый закадровый)
Перевод 3: Украинский: Профессиональный (двухголосый закадровый) - 2+2
Субтитры: русские, английские
Режиссер: Джордж Галло / George Gallo

В ролях: Антонио Бандерас, Мег Райан , Колин Хэнкс, Селма Блэр, Тревор Морган, John Valdetero, Эли Данкер, Том Адамс, Кит Дэвид, Энрико Колантони и другие

Описание: Юный агент ФБР Генри, выполняя очередное задание, покидает родной дом на три года, оставляя в гордом одиночестве свою полную одинокую мамашу Марту. В следующий раз, когда он ее увидит, она уже предстанет перед ним в образе прекрасной разбитной блондинки Марти, которая намерена в последние годы уходящей молодости взять от жизни все.
И в своих стремлениях она, не зная тормозов, заводит романы направо и налево, не гнушаясь ни лысыми итальянскими поварами, ни безусыми юнцами на мотоциклах. От всего происходящего у Генри идет кругом голова, но окончательно почва уйдет у него из-под ног в тот момент, когда Марти повстречает некоего Томми, а Генри на летучке в ФБР прикажут следить за новым ухажером, ввиду широкой известности последнего в Интерполе.



Тип релиза: BDRip 1080p
Контейнер: MKV

Видео: 1920x798 (2.40:1), 24.000 fps, AVC, ~12.0 Mbps, 0.327 bits/pixel
Аудио: Russian, 48.0 KHz, AC3, 6 ch, 448 Kbps - Дубляж
Аудио 2: Russian, 48.0 KHz, AC3, 6 ch, 448 Kbps - Двухголосый закадровый
Аудио 3: Ukrainian, 48.0 KHz, AC3, 2 ch, 192 Kbps - Двухголосый закадровый - 2+2
Аудио 4: English, 48.0 KHz, DTS, 6 ch, 1510 Kbps - original
Формат субтитров: softsub (SRT)
Сэмпл: https://yadi.sk/i/0jPQ06Lo3R9uJj

Общее
Уникальный идентификатор : 207843015911884454433494198790562043311 (0x9C5D1BDAD15D42CBA06547DABBC4D5AF)
Полное имя : F:My.Mom's.New.Boyfriend.2008.BDRip.1080p.2xRus.Ukr.Eng.mkv
Формат : Matroska
Версия формата : Version 4 / Version 2
Размер файла : 10,1 Гбайт
Продолжительность : 1 ч. 37 м.
Общий поток : 14,9 Мбит/сек
Название фильма : Rip by msltel
Дата кодирования : UTC 2018-01-02 09:44:20
Программа кодирования : mkvmerge v7.9.0 ('Birds') 64bit
Библиотека кодирования : libebml v1.3.1 + libmatroska v1.4.2
_STATISTICS_WRITING_APP : mkvmerge v7.9.0 ('Birds') 64bit
_STATISTICS_WRITING_DATE_UTC : 2018-01-02 09:44:20
_STATISTICS_TAGS : BPS DURATION NUMBER_OF_FRAMES NUMBER_OF_BYTES
DURATION : 01:37:01.376000000
NUMBER_OF_FRAMES : 181918
NUMBER_OF_BYTES : 139713024

Видео
Идентификатор : 1
Формат : AVC
Формат/Информация : Advanced Video Codec
Профиль формата : High@L4.1
Параметр CABAC формата : Да
Параметр ReFrames формата : 4 кадра
Идентификатор кодека : V_MPEG4/ISO/AVC
Продолжительность : 1 ч. 37 м.
Битрейт : 12,0 Мбит/сек
Ширина : 1920 пикселей
Высота : 798 пикселей
Соотношение сторон : 2,40:1
Режим частоты кадров : Постоянный
Частота кадров : 24,000 кадра/сек
Цветовое пространство : YUV
Субдискретизация насыщенности : 4:2:0
Битовая глубина : 8 бит
Тип развёртки : Прогрессивная
Бит/(Пиксели*Кадры) : 0.327
Размер потока : 8,15 Гбайт (81%)
Библиотека кодирования : x264 core 146 r2538 121396c
Настройки программы : cabac=1 / ref=4 / deblock=1:-3:-2 / analyse=0x3:0x113 / me=umh / subme=11 / psy=1 / psy_rd=1.00:0.15 / mixed_ref=1 / me_range=32 / chroma_me=1 / trellis=2 / 8x8dct=1 / cqm=0 / deadzone=21,11 / fast_pskip=0 / chroma_qp_offset=-3 / threads=6 / lookahead_threads=1 / sliced_threads=0 / nr=0 / decimate=1 / interlaced=0 / bluray_compat=0 / constrained_intra=0 / bframes=6 / b_pyramid=2 / b_adapt=2 / b_bias=0 / direct=1 / weightb=1 / open_gop=0 / weightp=2 / keyint=230 / keyint_min=23 / scenecut=40 / intra_refresh=0 / rc_lookahead=40 / rc=crf / mbtree=0 / crf=18.2 / qcomp=0.60 / qpmin=0 / qpmax=69 / qpstep=4 / vbv_maxrate=62500 / vbv_bufsize=78125 / crf_max=0.0 / nal_hrd=none / filler=0 / ip_ratio=1.40 / pb_ratio=1.30 / aq=1:1.00
Язык : English
Default : Да
Forced : Нет
_STATISTICS_WRITING_APP : mkvmerge v7.9.0 ('Birds') 64bit
_STATISTICS_WRITING_DATE_UTC : 2018-01-02 09:44:20
_STATISTICS_TAGS : BPS DURATION NUMBER_OF_FRAMES NUMBER_OF_BYTES
DURATION : 01:36:52.667000000
NUMBER_OF_FRAMES : 139504
NUMBER_OF_BYTES : 8985083172

Аудио #1
Идентификатор : 2
Формат : AC-3
Формат/Информация : Audio Coding 3
Расширение режима : CM (complete main)
Параметр Endianness формата : Big
Идентификатор кодека : A_AC3
Продолжительность : 1 ч. 37 м.
Вид битрейта : Постоянный
Битрейт : 448 Кбит/сек
Каналы : 6 каналов
Расположение каналов : Front: L C R, Side: L R, LFE
Частота : 48,0 КГц
Битовая глубина : 16 бит
Метод сжатия : С потерями
Размер потока : 311 Мбайт (3%)
Заголовок : Дубляж
Язык : Russian
Default : Да
Forced : Нет

Аудио #2
Идентификатор : 3
Формат : AC-3
Формат/Информация : Audio Coding 3
Расширение режима : CM (complete main)
Параметр Endianness формата : Big
Идентификатор кодека : A_AC3
Продолжительность : 1 ч. 37 м.
Вид битрейта : Постоянный
Битрейт : 448 Кбит/сек
Каналы : 6 каналов
Расположение каналов : Front: L C R, Side: L R, LFE
Частота : 48,0 КГц
Битовая глубина : 16 бит
Метод сжатия : С потерями
Размер потока : 311 Мбайт (3%)
Заголовок : Двухголосый закадровый
Язык : Russian
Default : Нет
Forced : Нет

Аудио #3
Идентификатор : 4
Формат : AC-3
Формат/Информация : Audio Coding 3
Расширение режима : CM (complete main)
Параметр Endianness формата : Big
Идентификатор кодека : A_AC3
Продолжительность : 1 ч. 37 м.
Вид битрейта : Постоянный
Битрейт : 192 Кбит/сек
Каналы : 2 канала
Расположение каналов : Front: L R
Частота : 48,0 КГц
Битовая глубина : 16 бит
Метод сжатия : С потерями
Размер потока : 133 Мбайт (1%)
Заголовок : Двухголосый закадровый - 2+2
Язык : Ukrainian
Default : Нет
Forced : Нет

Аудио #4
Идентификатор : 5
Формат : DTS
Формат/Информация : Digital Theater Systems
Режим : 16
Параметр Endianness формата : Big
Идентификатор кодека : A_DTS
Продолжительность : 1 ч. 37 м.
Вид битрейта : Постоянный
Битрейт : 1509 Кбит/сек
Каналы : 6 каналов
Расположение каналов : Front: L C R, Side: L R, LFE
Частота : 48,0 КГц
Битовая глубина : 16 бит
Метод сжатия : С потерями
Размер потока : 1,02 Гбайт (10%)
Заголовок : original
Язык : English
Default : Нет
Forced : Нет

Текст #1
Идентификатор : 6
Формат : UTF-8
Идентификатор кодека : S_TEXT/UTF8
Идентификатор кодека/Информация : UTF-8 Plain Text
Заголовок : русские
Язык : Russian
Default : Нет
Forced : Нет

Текст #2
Идентификатор : 7
Формат : UTF-8
Идентификатор кодека : S_TEXT/UTF8
Идентификатор кодека/Информация : UTF-8 Plain Text
Заголовок : английские
Язык : English
Default : Нет
Forced : Нет

Меню
00:00:00.000 : :Chapter 01
00:03:45.707 : :Chapter 02
00:06:23.125 : :Chapter 03
00:09:39.750 : :Chapter 04
00:16:01.291 : :Chapter 05
00:20:25.708 : :Chapter 06
00:27:09.208 : :Chapter 07
00:32:08.125 : :Chapter 08
00:41:41.708 : :Chapter 09
00:45:01.666 : :Chapter 10
00:52:13.000 : :Chapter 11
00:59:43.291 : :Chapter 12
01:04:38.375 : :Chapter 13
01:09:24.791 : :Chapter 14
01:20:58.375 : :Chapter 15
01:30:33.625 : :Chapter 16
01:36:52.375 : :Chapter 17




Релиз от:


_________________
Проголосуй за трекер Открытый торрент трекер - RUS-MEDIA.ORG

Проголосуй Открытый торрент трекер - RUS-MEDIA.ORG


Вернуться к началу
 Профиль Отправить личное сообщение  
 
   Похожие торренты   Автор   Торрент   Размер 
В этой теме нет новых непрочитанных сообщений. Новый парень моей мамы / My Mom's New Boyfriend [боевик, триллер, комедия, 2008] BDRip 720p, Dub

salma3

1 | 24

5.7 ГБ

В этой теме нет новых непрочитанных сообщений. Новый парень моей мамы / My Mom's New Boyfriend [боевик, триллер, комедия, 2008] Remux 1080p, Dub

salma3

12 | 8

16.7 ГБ

В этой теме нет новых непрочитанных сообщений. Новый парень моей мамы / My Mom's New Boyfriend [боевик, триллер, комедия, 2008] HDTVRip-AVC, Dub [Open Matte]

salma3

0 | 0

1.39 ГБ

В этой теме нет новых непрочитанных сообщений. Новый парень моей мамы / My Mom's New Boyfriend [боевик, триллер, комедия, 2008] HDTV 1080i, Dub [Open Matte]

salma3

70 | 17

4.35 ГБ

В этой теме нет новых непрочитанных сообщений. My Daughter's Boyfriend 15 / Парень Моей Дочери 15 (Jacky St. James, Sweet Sinner) [2018 г., Affairs & Love Triangles, All Sex, Mature, MILF., WEB-DL]

salma3

38 | 13

3.47 ГБ

В этой теме нет новых непрочитанных сообщений. Парень с того света / My Boyfriend's Back [комедия, ужасы, фэнтези, мелодрама, 1993] BDRip 720p, Avo

salma3

18 | 9

7.46 ГБ

В этой теме нет новых непрочитанных сообщений. Парень с того света / My Boyfriend's Back [Ужасы, фэнтези, мелодрама, комедия, 1993] BDRemux 1080p, Avo

salma3

14 | 8

18.09 ГБ


Начать новую тему Ответить на тему  [ 1 сообщение ] 




Для Мосгорсуда, Роскомнадзора и рекламодателей:: mosgorsud-torrent[собачка]yandex.ru
cron