Торрент файл
скачать торрент магнет ссылка Добавлен: 03 янв 2018, 13:50
Размер: 15.87 ГБ
Сидеров: 10
Личеров: 27
Статус: (salma3)
Автор

СообщениеДобавлено: 03 янв 2018, 13:50 

Не в сети
Супермодератор
Аватара пользователя
Дата регистрации:
15 фев 2012, 16:44
Возраст: 29
Спасибо: 7434 / 2147
Сообщения: 80216
Год выхода: 1956
Жанр: Приключения, комедия, мелодрама, семейный
Режиссер: Майкл Андерсон, Джон Фэрроу

В ролях: Дэвид Нивен, Кантинфлас, Ширли МакЛейн, Роберт Ньютон, Шарль Буайе, Роберт Морли, Ноэл Коуард, Джон Гилгуд, Тревор Ховард, Джон Кэрредин

О фильме:
Обогнуть земной шар всего за 80 дней? Смешно! Даже лучшие паровые корабли Ее Величества Виктории не смогут сделать это. Но точный и пунктуальный Филеас Фогг заявил, что сможет. А когда члены лондонского престижного Реформ-Клуба попросят Фогга подкрепить его похвальбу солидной денежной ставкой, мы отправимся в путешествие Вокруг света в 80 дней!



Страна: США, Великобритания
Продолжительность: 03:01:52
Перевод: Профессиональный (многоголосый, закадровый) + Профессиональный (двухголосый закадровый)
Релиз от: NNMClub

Файл
Качество: WEBRip 1080р
Формат: MKV
Видео: AVC/H.264, 1920x872, ~11,6 Mbps
Аудио:1 AC3, 2 ch, 224 kbps - Русский, многоголосый (НТВ)
Аудио:2 AC3, 2 ch, 224 kbps - Русский, двухголосый (Фильм-Престиж)
Аудио:3 E-AC3, 2 ch, 224 kbps - Английский оригинальный
Аудио:4 AC3, 2 ch, 192 kbps - Французский дубляж
Субтитры: Русские, английские, французские





Оскар, 1957 год
Победитель (5):
Лучший фильм
Лучший адаптированный сценарий
Лучшая работа оператора (цветные фильмы)
Лучший монтаж
Лучший саундтрек для драматических/комедийных картин

Номинации (3):
Лучший режиссер (Майкл Андерсон)
Лучшая работа художника (цветные фильмы)
Лучшая работа художника по костюмам (цветные фильмы)

Золотой глобус, 1957 год

Победитель (2):
Лучший фильм (драма)
Лучшая мужская роль (комедия или мюзикл) ( Кантинфлас )

Номинации (1):
Лучший режиссер (Майкл Андерсон)
Complete name : H:Around.the.World.in.80.Days.(1956).WEBRip.1080p.NNMCLUB.mkv
Format : Matroska
Format version : Version 4 / Version 2
File size : 15.9 GiB
Duration : 3 h 1 min
Overall bit rate mode : Variable
Overall bit rate : 12.5 Mb/s
Movie name : Around the World in 80 Days.(1956).WEBRip.1080p.NNMClub
Encoded date : UTC 2017-12-26 19:19:45
Writing application : mkvmerge v8.3.0 ('Over the Horizon') 64bit
Writing library : libebml v1.3.1 + libmatroska v1.4.2

Video
ID : 1
Format : AVC
Format/Info : Advanced Video Codec
Format profile : High@L4
Format settings : CABAC / 4 Ref Frames
Format settings, CABAC : Yes
Format settings, RefFrames : 4 frames
Codec ID : V_MPEG4/ISO/AVC
Duration : 3 h 1 min
Bit rate mode : Variable
Bit rate : 11.6 Mb/s
Maximum bit rate : 15.0 Mb/s
Width : 1 920 pixels
Height : 872 pixels
Display aspect ratio : 2.2:1
Original display aspect rat : 2.2:1
Frame rate mode : Constant
Frame rate : 23.976 (24000/1001) FPS
Color space : YUV
Chroma subsampling : 4:2:0
Bit depth : 8 bits
Scan type : Progressive
Bits/(Pixel*Frame) : 0.290
Stream size : 14.8 GiB (93%)
Title : Around the World in 80 Days.(1956).WEBRip.1080p
Writing library : x264 core 148 r2623 d5b2374
Encoding settings : cabac=1 / ref=4 / deblock=1:-1:-1 / analyse=0x3:0x133 / me=umh / subme=9 / psy=1 / psy_rd=1.00:0.15 / mixed_ref=1 / me_range=24 / chroma_me=1 / trellis=2 / 8x8dct=1 / cqm=0 / deadzone=21,11 / fast_pskip=1 / chroma_qp_offset=-3 / threads=27 / lookahead_threads=4 / sliced_threads=0 / nr=150 / decimate=1 / interlaced=0 / bluray_compat=0 / constrained_intra=0 / bframes=8 / b_pyramid=2 / b_adapt=2 / b_bias=0 / direct=3 / weightb=1 / open_gop=0 / weightp=2 / keyint=120 / keyint_min=61 / scenecut=0 / intra_refresh=0 / rc_lookahead=120 / rc=crf / mbtree=1 / crf=18.0 / qcomp=0.60 / qpmin=0 / qpmax=69 / qpstep=4 / vbv_maxrate=15000 / vbv_bufsize=31250 / crf_max=0.0 / nal_hrd=vbr / filler=0 / ip_ratio=1.40 / aq=3:1.00
Language : English
Default : Yes
Forced : No
Color range : Limited
Color primaries : BT.709
Transfer characteristics : BT.709
Matrix coefficients : BT.709

Audio #1
ID : 2
Format : AC-3
Format/Info : Audio Coding 3
Format settings, Endianness : Big
Codec ID : A_AC3
Duration : 3 h 1 min
Bit rate mode : Constant
Bit rate : 224 kb/s
Channel(s) : 2 channels
Channel positions : Front: L R
Sampling rate : 48.0 kHz
Frame rate : 31.250 FPS (1536 SPF)
Bit depth : 16 bits
Compression mode : Lossy
Stream size : 291 MiB (2%)
Title : AC3 2.0 @ 224 kbps - MVO, НТВ
Language : Russian
Service kind : Complete Main
Default : Yes
Forced : No

Audio #2
ID : 3
Format : AC-3
Format/Info : Audio Coding 3
Format settings, Endianness : Big
Codec ID : A_AC3
Duration : 3 h 1 min
Bit rate mode : Constant
Bit rate : 224 kb/s
Channel(s) : 2 channels
Channel positions : Front: L R
Sampling rate : 48.0 kHz
Frame rate : 31.250 FPS (1536 SPF)
Bit depth : 16 bits
Compression mode : Lossy
Stream size : 291 MiB (2%)
Title : AC3 2.0 @ 224 kbps - DVO, Фильм-Престиж
Language : Russian
Service kind : Complete Main
Default : No
Forced : No

Audio #3
ID : 4
Format : E-AC-3
Format/Info : Enhanced Audio Coding 3
Format settings, Endianness : Big
Codec ID : A_EAC3
Duration : 3 h 1 min
Bit rate mode : Constant
Bit rate : 224 kb/s
Channel(s) : 2 channels
Channel positions : Front: L R
Sampling rate : 48.0 kHz
Frame rate : 187.500 FPS (256 SPF)
Compression mode : Lossy
Stream size : 291 MiB (2%)
Title : E-AC3 2.0 @ 224 kbps - Original
Language : English
Service kind : Complete Main
Default : No
Forced : No

Audio #4
ID : 5
Format : AC-3
Format/Info : Audio Coding 3
Format settings, Endianness : Big
Codec ID : A_AC3
Duration : 3 h 1 min
Bit rate mode : Constant
Bit rate : 192 kb/s
Channel(s) : 2 channels
Channel positions : Front: L R
Sampling rate : 48.0 kHz
Frame rate : 31.250 FPS (1536 SPF)
Bit depth : 16 bits
Compression mode : Lossy
Stream size : 250 MiB (2%)
Title : AC3 2.0 @ 192 kbps - Dub
Language : French
Service kind : Complete Main
Default : No
Forced : No

Text #1
ID : 6
Format : UTF-8
Codec ID : S_TEXT/UTF8
Codec ID/Info : UTF-8 Plain Text
Duration : 2 h 56 min
Bit rate : 72 b/s
Count of elements : 1703
Stream size : 93.2 KiB (0%)
Language : Russian
Default : No
Forced : No

Text #2
ID : 7
Format : UTF-8
Codec ID : S_TEXT/UTF8
Codec ID/Info : UTF-8 Plain Text
Duration : 2 h 50 min
Bit rate : 43 b/s
Count of elements : 1260
Stream size : 54.3 KiB (0%)
Language : English
Default : No
Forced : No

Text #3
ID : 8
Format : UTF-8
Codec ID : S_TEXT/UTF8
Codec ID/Info : UTF-8 Plain Text
Duration : 2 h 50 min
Bit rate : 34 b/s
Count of elements : 1256
Stream size : 43.6 KiB (0%)
Language : French
Default : No
Forced : No

Menu
00:00:00.000 : en:A Trip to the Moon Prologue
00:04:37.000 : en:How the Earth Looks
00:06:36.000 : en:The Reform Club
00:09:38.000 : en:Man for the Job
00:15:02.000 : en:The Wager
00:20:14.000 : en:Unpacking and Packing
00:22:50.000 : en:Paris
00:25:44.000 : en:Bought: One Balloon
00:28:35.000 : en:Aloft Over France
00:34:53.000 : en:Spain
00:38:50.000 : en:Cave of the Seven Winds
00:42:57.000 : en:Achmed Abdullah's Request
00:46:16.000 : en:Master Bullfighter
00:50:26.000 : en:Passepartout Triumphant
00:56:39.000 : en:Inspector Fix
01:01:27.000 : en:Fogg Fix-ation
01:05:23.000 : en:Bombay by Dawn
01:07:17.000 : en:No Place to Fight a Bull
01:10:56.000 : en:India Countryside
01:14:32.000 : en:Via Elephant
01:19:07.000 : en:Princess in Distress
01:23:17.000 : en:Scandalous Rescue
01:26:18.000 : en:Kindred Spirits
01:30:00.000 : en:This, That and T'Other
01:31:51.000 : en:Follow That Ostrich
01:35:13.000 : en:Farewell Drink
01:40:45.000 : en:Yokohama-Bound
01:43:54.000 : en:Alone in Yokohama
01:48:01.000 : en:Circus Reunion
01:51:12.000 : en:Intermission
01:52:42.000 : en:Entr'Acte
01:55:56.000 : en:Latest News
01:58:11.000 : en:Frisco Spectacle
02:00:56.000 : en:Star-Spangled Saloon
02:04:30.000 : en:Ornery Specimen
02:06:07.000 : en:Way Out West by Train
02:10:02.000 : en:A Bridge Too Rickety
02:13:14.000 : en:Redskins!
02:16:36.000 : en:Rescuing Passepartout
02:23:50.000 : en:Prairie Sail Car
02:26:33.000 : en:Disquieting Information
02:30:29.000 : en:The Henrietta
02:32:49.000 : en:Stripping the Ship
02:37:35.000 : en:Arrested and Freed
02:40:19.000 : en:Sympathetic Spirits
02:44:41.000 : en:Saturday!
02:46:37.000 : en:Race to the Club
02:49:12.000 : en:The End
02:50:18.000 : en:End Credits
02:56:34.000 : en:Exit Music




_________________
Проголосуй за трекер Открытый торрент трекер - RUS-MEDIA.ORG

Проголосуй Открытый торрент трекер - RUS-MEDIA.ORG


Вернуться к началу
 Профиль Отправить личное сообщение  
 
   Похожие торренты   Автор   Торрент   Размер 
В этой теме нет новых непрочитанных сообщений. Вокруг света за 80 дней / Around the World in 80 Days [Боевик, Комедия, Приключения, 2004] BDRip 720р, Dub

salma3

0 | 0

3.28 ГБ

В этой теме нет новых непрочитанных сообщений. Мир без конца / World Without End [фантастика, мелодрама, приключения, 1956] HDRip, Avo

salma3

126 | 45

1.09 ГБ

В этой теме нет новых непрочитанных сообщений. Шесть дней, семь ночей / Six Days Seven Nights [Мелодрама, Комедия, Боевик, Приключения, 1998] WEBRip-AVC, Dub

salma3

69 | 10

2.92 ГБ

В этой теме нет новых непрочитанных сообщений. Шесть дней, семь ночей / Six Days Seven Nights [боевик, комедия, мелодрама, приключения, 1998] WEBRip 720p, Dub

salma3

64 | 16

5.05 ГБ

В этой теме нет новых непрочитанных сообщений. Моби Дик / Moby Dick [драма, приключения, 1956] BDRemux 1080р, Mvo

salma3

0 | 1

25.51 ГБ

В этой теме нет новых непрочитанных сообщений. Конец света инкорпорейтед / End of Days, Inc. [фантастика, комедия, 2016] HDRip, Avo

salma3

86 | 8

1.57 ГБ

В этой теме нет новых непрочитанных сообщений. Конец света инкорпорейтед / End of Days, Inc. (фантастика, комедия, 2015) HDRip | L1

marya111

156 | 3

1.34 ГБ


Начать новую тему Ответить на тему  [ 1 сообщение ] 




Для Мосгорсуда, Роскомнадзора и рекламодателей:: mosgorsud-torrent[собачка]yandex.ru
cron