Торрент файл
скачать торрент магнет ссылка Добавлен: 05 янв 2018, 21:32
Размер: 28.93 ГБ
Сидеров: 30
Личеров: 9
Статус: (salma3)
Автор

СообщениеДобавлено: 05 янв 2018, 21:32 

Не в сети
Супермодератор
Аватара пользователя
Дата регистрации:
15 фев 2012, 16:44
Возраст: 29
Спасибо: 7401 / 2147
Сообщения: 78470
Год выхода: 1967
Жанр: драма, приключения
Режиссер: Робер Энрико

В ролях: Ален Делон, Лино Вентура, Джоанна Шимкус, Серж Реджани, Ганс Мейер, Жан Дарье, Жан Троньон, Одиль Пуассон, Ирен Тунк, Валерий Инкижинов, Рауль Гилад, Жан Лендьер, Ги Делорм, Патрик Бернхард, Роланд Флёри, Поль Кроше, Мик Бессон, Жан-Поль Блондэ, Жан Фаллю, Гастон Мёнье, Оливье Писсоа, Тереза Квенттин

Описание: Троицу отважных парижан одолевают сумасбродные мечты. Пролететь на самолете под Триумфальной аркой, например. Но даже такие устремления не останавливают их перед возможностью еще более рискованных приключений. Они отправляются к берегам Конго за …сокровищами. Но там их ждет роковое столкновение…



Страна: Франция, Италия
Продолжительность: 01:53:24
Перевод 1: Профессиональный (дублированный) Московского ордена Ленина киностудия Мосфильм
Перевод 2: Профессиональный (многоголосый, закадровый)
Субтитры: русские, английские, французские

Файл
Качество: BDRemux 1080р
Видео: 35000 kbps, 1920x1080 (16:9), 24,000 fps
Аудио 1: Русский, 256 kbps, 48,0 КГц, 16 бит, 2 канала, AC-3 - дубляж
Аудио 2: Русский, 448 kbps, 48,0 КГц, 16 бит, 6 каналов, AC-3 - многоголоска
Аудио 3: Французский, DTS MA: 2.0 / 48,0 КГц / 845 Кбит/сек / 16 бит / (DTS Core: 2.0 / 48,0 КГц / 768 Кбит/сек / 16 бит)

Общее
Уникальный идентификатор : 149685923754256858010055126041235692539 (0x709C75D4FC6BFBD9945BFFB367E21BFB)
Полное имя : Искатели приключений (1967) BDRemux 1080p.mkv
Формат : Matroska
Версия формата : Version 4 / Version 2
Размер файла : 28,9 Гбайт
Продолжительность : 1 ч. 53 м.
Режим общего битрейта : Переменный
Общий поток : 36,5 Мбит/сек
Название фильма : Les aventuriers (1967)
Дата кодирования : UTC 2018-01-04 15:12:09
Программа кодирования : mkvmerge v19.0.0 ('Brave Captain') 64-bit
Библиотека кодирования : libebml v1.3.5 + libmatroska v1.4.8

Видео
Идентификатор : 1
Формат : AVC
Формат/Информация : Advanced Video Codec
Профиль формата : High@L4.1
Настройки формата : CABAC / 2 Ref Frames
Параметр CABAC формата : Да
Параметр RefFrames формата : 2 кадра
Идентификатор кодека : V_MPEG4/ISO/AVC
Продолжительность : 1 ч. 53 м.
Вид битрейта : Переменный
Битрейт : 35,0 Мбит/сек
Ширина : 1920 пикселей
Высота : 1080 пикселей
Соотношение сторон : 16:9
Режим частоты кадров : Постоянный
Частота кадров : 24,000 кадра/сек
Цветовое пространство : YUV
Субдискретизация насыщенности : 4:2:0
Битовая глубина : 8 бит
Тип развёртки : Прогрессивная
Бит/(Пиксели*Кадры) : 0.703
Размер потока : 27,7 Гбайт (96%)
Язык : French
Default : Да
Forced : Нет

Аудио #1
Идентификатор : 2
Формат : AC-3
Формат/Информация : Audio Coding 3
Идентификатор кодека : A_AC3
Продолжительность : 1 ч. 53 м.
Вид битрейта : Постоянный
Битрейт : 256 Кбит/сек
Каналы : 2 канала
Расположение каналов : Front: L R
Частота : 48,0 КГц
Частота кадров : 31,250 кадров/сек (1536 SPF)
Битовая глубина : 16 бит
Метод сжатия : С потерями
Размер потока : 208 Мбайт (1%)
Заголовок : Dub
Язык : Russian
Default : Да
Forced : Нет

Аудио #2
Идентификатор : 3
Формат : AC-3
Формат/Информация : Audio Coding 3
Идентификатор кодека : A_AC3
Продолжительность : 1 ч. 53 м.
Вид битрейта : Постоянный
Битрейт : 448 Кбит/сек
Каналы : 6 каналов
Расположение каналов : Front: L C R, Side: L R, LFE
Частота : 48,0 КГц
Частота кадров : 31,250 кадров/сек (1536 SPF)
Битовая глубина : 16 бит
Метод сжатия : С потерями
Размер потока : 363 Мбайт (1%)
Заголовок : MVO
Язык : Russian
Default : Нет
Forced : Нет

Аудио #3
Идентификатор : 4
Формат : DTS
Формат/Информация : Digital Theater Systems
Профиль формата : MA / Core
Идентификатор кодека : A_DTS
Продолжительность : 1 ч. 53 м.
Вид битрейта : Переменный / Постоянный
Битрейт : 845 Кбит/сек / 768 Кбит/сек
Каналы : 2 канала
Расположение каналов : Front: L R
Частота : 48,0 КГц
Частота кадров : 93,750 кадра/сек (512 SPF)
Битовая глубина : 16 бит
Метод сжатия : Без потерь / Lossy
Размер потока : 685 Мбайт (2%)
Заголовок : original
Язык : French
Default : Нет
Forced : Нет

Текст #1
Идентификатор : 5
Формат : UTF-8
Идентификатор кодека : S_TEXT/UTF8
Идентификатор кодека/Информация : UTF-8 Plain Text
Продолжительность : 1 ч. 49 м.
Битрейт : 57 бит/сек
ElementCount : 741
Размер потока : 46,2 Кбайт (0%)
Заголовок : srt
Язык : Russian
Default : Нет
Forced : Нет

Текст #2
Идентификатор : 6
Формат : UTF-8
Идентификатор кодека : S_TEXT/UTF8
Идентификатор кодека/Информация : UTF-8 Plain Text
Продолжительность : 1 ч. 49 м.
Битрейт : 25 бит/сек
ElementCount : 791
Размер потока : 20,3 Кбайт (0%)
Заголовок : srt
Язык : English
Default : Нет
Forced : Нет

Текст #3
Идентификатор : 7
Формат : PGS
Режим смешивания : zlib
Идентификатор кодека : S_HDMV/PGS
Идентификатор кодека/Информация : Picture based subtitle format used on BDs/HD-DVDs
Продолжительность : 1 ч. 52 м.
Битрейт : 20,1 Кбит/сек
ElementCount : 2452
Размер потока : 16,3 Мбайт (0%)
Заголовок : sup
Язык : French
Default : Нет
Forced : Нет

Меню
00:00:00.000 : en:Chapter 1
00:09:47.500 : en:Chapter 2
00:17:39.291 : en:Chapter 3
00:26:54.750 : en:Chapter 4
00:34:38.541 : en:Chapter 5
00:44:29.041 : en:Chapter 6
00:51:48.875 : en:Chapter 7
01:00:53.666 : en:Chapter 8
01:07:57.000 : en:Chapter 9
01:16:51.416 : en:Chapter 10
01:28:27.000 : en:Chapter 11
01:40:23.833 : en:Chapter 12


ЦитатаКто-то писал:
Вставки многоголоски в дубляж: 00:09:47 - 00:10:00, 00:25:07 - 00:29:27, 00:29:43 - 00:30:26, 00:32:18 - 00:32:51, 00:47:15 - 00:47:51, 00:48:38 - 00:49:05, 01:04:56 - 01:07:06, 01:09:24 - 01:09:57, 01:19:44 - 01:20:32, 01:33:42 - 01:35:49


_________________
Проголосуй за трекер Открытый торрент трекер - RUS-MEDIA.ORG

Проголосуй Открытый торрент трекер - RUS-MEDIA.ORG


Вернуться к началу
 Профиль Отправить личное сообщение  
 
   Похожие торренты   Автор   Торрент   Размер 
В этой теме нет новых непрочитанных сообщений. Искатели приключений / Les Aventuriers [драма, приключения, 1967] BDRip, Dub

salma3

48 | 12

1.45 ГБ

В этой теме нет новых непрочитанных сообщений. Искатели приключений / Les aventuriers [Драма, приключения, 1967] BDRip 720p, Dub

salma3

0 | 0

8.55 ГБ

В этой теме нет новых непрочитанных сообщений. Самурай / Le samouraï [триллер, драма, детектив, 1967] BDRemux 1080р, Dvo

salma3

8 | 11

26.81 ГБ

В этой теме нет новых непрочитанных сообщений. Инцидент, или Случай в метро / The incident [криминал, драма, триллер, 1967] BDRemux 1080р, Mvo

salma3

0 | 0

23.64 ГБ

В этой теме нет новых непрочитанных сообщений. Полуночная жара / In the Heat of the Night [драма, криминал, детектив, 1967] BDRemux 1080р, Mvo

salma3

0 | 0

30.19 ГБ

В этой теме нет новых непрочитанных сообщений. Сад пыток / Torture Garden [ужасы, 1967] BDRemux 1080р, Avo

salma3

8 | 2

25.4 ГБ

В этой теме нет новых непрочитанных сообщений. Моби Дик / Moby Dick [драма, приключения, 1956] BDRemux 1080р, Mvo

salma3

0 | 1

25.51 ГБ


Начать новую тему Ответить на тему  [ 1 сообщение ] 




Для Мосгорсуда, Роскомнадзора и рекламодателей:: mosgorsud-torrent[собачка]yandex.ru
cron