Торрент файл
скачать торрент магнет ссылка Добавлен: 17 янв 2018, 11:54
Размер: 8.81 ГБ
Сидеров: 0
Личеров: 0
Статус: (salma3)
Автор

СообщениеДобавлено: 17 янв 2018, 11:54 

В сети
Супермодератор
Аватара пользователя
Дата регистрации:
15 фев 2012, 16:44
Возраст: 29
Спасибо: 7400 / 2147
Сообщения: 78350
Год выхода: 1984
Жанр: Фантастика, боевик, фэнтези
Режиссер: Алан Смити

В ролях: Кайл МакЛоклен, Юрген Прохнов, Франческа Аннис, Патрик Стюарт, Ричард Джордан, Фредди Джонс, Дин Стокуэлл, Кеннет МакМиллан, Стинг, Леонардо Чимино

О фильме:
Планета Арракис, также известная под названием Дюна, год 10991. Это арена борьбы между злом и благородством, мир тончайших и опаснейших интриг. Гигантские песчаные черви длиной в целую милю сторожат бесценное сокровище — меланжевую пряность, позволяющую путешествовать сквозь Пространство и Время. Тот, кто контролирует пряность, контролирует Вселенную.
Народ Дюны ожидает пришествия Мессии, который поведет их на священную войну против династии злобных Харконненов. И Мессия является. Им становится юный Пол Атрейдес, сын герцога Лито, предательски убитого Харконненами с одобрения Императора. Полу предстоит великая миссия, которая навсегда изменит судьбу всей галактической империи…



Страна: США
Продолжительность: 02:57:15
Перевод: Профессиональный двухголосый закадровый (студия "Tycoon")

Файл
Кодек: HEVC x265 8bit
Качество: BDRip-HEVC 1080p
Видео: 1918x800, 23.976 кадр/сек, 6218 Кбит/сек, (Main@L4.1@High), 8bit
Звук:
Аудио1: Русская, AC3 448 Кбит/сек, 6 канала(ов),16bit 48,0 КГц
Аудио2: English, AC3 448 Кбит/сек, 6 канала(ов),16bit 48,0 КГц
Субтитры: Нет
Навигация по главам: Есть

General
Unique ID : 179382543906302020158067147563090232015 (0x86F3D23F77E7496FABA7318BC7BEC2CF)
Complete name : T:HDFILMSDuneDune [Extended version] (1984) BDRip 1080p [HEVC].mkv
Format : Matroska
Format version : Version 4 / Version 2
File size : 8.81 GiB
Duration : 2 h 57 min
Overall bit rate : 7 116 kb/s
Encoded date : UTC 2017-08-27 16:25:29
Writing application : mkvmerge v13.0.0 ('The Juggler') 64bit
Writing library : libebml v1.3.4 + libmatroska v1.4.5
Cover : Yes
Attachments : cover1.jpg

Video
ID : 1
Format : HEVC
Format/Info : High Efficiency Video Coding
Format profile : Main@L4.1@High
Codec ID : V_MPEGH/ISO/HEVC
Duration : 2 h 57 min
Bit rate : 6 218 kb/s
Width : 1 920 pixels
Height : 800 pixels
Display aspect ratio : 2.40:1
Frame rate mode : Constant
Frame rate : 23.976 (24000/1001) FPS
Color space : YUV
Chroma subsampling : 4:2:0
Bit depth : 8 bits
Bits/(Pixel*Frame) : 0.169
Stream size : 7.70 GiB (87%)
Writing library : x265 2.5+9-fdf39a97ecb8:[Windows][GCC 7.1.0][64 bit] 8bit
Encoding settings : cpuid=1050111 / frame-threads=5 / numa-pools=4 / wpp / no-pmode / no-pme / no-psnr / no-ssim / log-level=3 / input-csp=1 / input-res=1920x800 / interlace=0 / total-frames=0 / level-idc=41 / high-tier=1 / uhd-bd=0 / ref=4 / no-allow-non-conformance / no-repeat-headers / annexb / no-aud / no-hrd / info / hash=0 / no-temporal-layers / open-gop / min-keyint=23 / keyint=240 / bframes=12 / b-adapt=2 / b-pyramid / bframe-bias=0 / rc-lookahead=40 / lookahead-slices=5 / scenecut=40 / no-intra-refresh / ctu=64 / min-cu-size=8 / no-rect / no-amp / max-tu-size=32 / tu-inter-depth=2 / tu-intra-depth=2 / limit-tu=0 / rdoq-level=0 / dynamic-rd=0.00 / no-ssim-rd / signhide / no-tskip / nr-intra=0 / nr-inter=0 / no-constrained-intra / strong-intra-smoothing / max-merge=3 / limit-refs=3 / no-limit-modes / me=2 / subme=3 / merange=32 / temporal-mvp / weightp / weightb / no-analyze-src-pics / deblock=-3:-3 / no-sao / no-sao-non-deblock / rd=3 / no-early-skip / rskip / no-fast-intra / no-tskip-fast / no-cu-lossless / no-b-intra / rdpenalty=0 / psy-rd=4.00 / psy-rdoq=0.00 / no-rd-refine / analysis-reuse-mode=0 / no-lossless / cbqpoffs=0 / crqpoffs=0 / rc=crf / crf=18.0 / qcomp=0.60 / qpstep=4 / stats-write=0 / stats-read=0 / vbv-maxrate=50000 / vbv-bufsize=35714 / vbv-init=0.9 / crf-max=30.0 / crf-min=0.0 / ipratio=1.40 / pbratio=1.30 / aq-mode=1 / aq-strength=1.30 / cutree / zone-count=0 / no-strict-cbr / qg-size=32 / no-rc-grain / qpmax=69 / qpmin=0 / no-const-vbv / sar=1 / overscan=0 / videoformat=5 / range=0 / colorprim=1 / transfer=1 / colormatrix=1 / chromaloc=0 / display-window=0 / max-cll=0,0 / min-luma=0 / max-luma=255 / log2-max-poc-lsb=8 / vui-timing-info / vui-hrd-info / slices=1 / opt-qp-pps / opt-ref-list-length-pps / no-multi-pass-opt-rps / scenecut-bias=0.05 / no-opt-cu-delta-qp / no-aq-motion / no-hdr / no-hdr-opt / no-dhdr10-opt / analysis-reuse-level=5 / scale-factor=0 / refine-intra=0 / refine-inter=0 / refine-mv=0 / no-limit-sao / ctu-info=0
Language : English
Default : Yes
Forced : No
Color range : Limited
Color primaries : BT.709
Transfer characteristics : BT.709
Matrix coefficients : BT.709

Audio #1
ID : 2
Format : AC-3
Format/Info : Audio Coding 3
Format settings, Endianness : Big
Codec ID : A_AC3
Duration : 2 h 57 min
Bit rate mode : Constant
Bit rate : 448 kb/s
Channel(s) : 6 channels
Channel positions : Front: L C R, Side: L R, LFE
Sampling rate : 48.0 kHz
Frame rate : 31.250 FPS (1536 SPF)
Bit depth : 16 bits
Compression mode : Lossy
Stream size : 568 MiB (6%)
Language : Russian
Service kind : Complete Main
Default : Yes
Forced : No

Audio #2
ID : 3
Format : AC-3
Format/Info : Audio Coding 3
Format settings, Endianness : Big
Codec ID : A_AC3
Duration : 2 h 57 min
Bit rate mode : Constant
Bit rate : 448 kb/s
Channel(s) : 6 channels
Channel positions : Front: L C R, Side: L R, LFE
Sampling rate : 48.0 kHz
Frame rate : 31.250 FPS (1536 SPF)
Bit depth : 16 bits
Compression mode : Lossy
Stream size : 568 MiB (6%)
Language : English
Service kind : Complete Main
Default : No
Forced : No



Релиз от: Cthulhu


_________________
Проголосуй за трекер Открытый торрент трекер - RUS-MEDIA.ORG

Проголосуй Открытый торрент трекер - RUS-MEDIA.ORG


Вернуться к началу
 Профиль Отправить личное сообщение  
 
   Похожие торренты   Автор   Торрент   Размер 
В этой теме нет новых непрочитанных сообщений. Дюна / Frank Herbert's Dune [фантастика, фэнтези, драма, 2000] BDRip-HEVC 1080p, Mvo

salma3

0 | 0

13.55 ГБ

В этой теме нет новых непрочитанных сообщений. Дюна / Dune [фантастика, боевик, приключения, 1984] Blu-ray Custom 1080p, Mvo [Theatrical Cut]

salma3

0 | 0

46.13 ГБ

В этой теме нет новых непрочитанных сообщений. Чужой против Хищника / Alien vs. Predator [Фантастика, боевик, приключения, 2004] BDRip-HEVC 1080p, Dub [Расширенная версия]

salma3

39 | 6

5.41 ГБ

В этой теме нет новых непрочитанных сообщений. Марсианин / The Martian [фантастика, приключения, 2015] BDRip-HEVC 1080p, Dub [Расширенная версия]

salma3

0 | 0

6.44 ГБ

В этой теме нет новых непрочитанных сообщений. Белоснежка и Охотник 2 [Расширенная версия] / The Huntsman: Winter's War [2016, фэнтези, боевик, приключения, BDRip, Avo [Гаврилов] [Расширенная версия]

salma3

61 | 15

1.46 ГБ

В этой теме нет новых непрочитанных сообщений. Звездные войны: Последние джедаи / Star Wars: Episode VIII - The Last Jedi [фантастика, фэнтези, боевик, 2017] BDRip-HEVC 1080p, Dub [Лицензия] [Локализованная версия]

salma3

52 | 9

7.44 ГБ

В этой теме нет новых непрочитанных сообщений. Конан-разрушитель / Conan the Destroyer [Фэнтези, боевик, приключения, 1984] BDRip-HEVC 1080p, Mvo

salma3

15 | 9

5.3 ГБ


Начать новую тему Ответить на тему  [ 1 сообщение ] 




Для Мосгорсуда, Роскомнадзора и рекламодателей:: mosgorsud-torrent[собачка]yandex.ru
cron