Торрент файл
скачать торрент магнет ссылка Добавлен: 29 янв 2018, 13:13
Размер: 13.58 ГБ
Сидеров: 0
Личеров: 0
Статус: (salma3)
Автор

СообщениеДобавлено: 29 янв 2018, 13:13 

Не в сети
Супермодератор
Аватара пользователя
Дата регистрации:
15 фев 2012, 16:44
Возраст: 29
Спасибо: 7421 / 2147
Сообщения: 79842
Год выпуска: 1995
Жанр: драма, мелодрама, комедия
Режиссер: Лоуренс Кэздан

В ролях: Мег Райан (Kate), Кевин Клайн (Luc Teyssier), Тимоти Хаттон (Charlie), Жан Рено (Inspector Jean-Paul Cardon), Франсуа Клюзе (Bob), Сюзан Анбех (Juliette), Рене Хамфри

О фильме:
Чарли уезжает в Париж на конференцию, а его невеста не летит с ним из-за страха перед самолетами. Через несколько дней он звонит ей и сообщает, что полюбил другую. Кейт сразу же прыгает в самолет, и страх ей помогает преодолеть грубоватый француз - Люк, оказавшийся вором и контрабандистом, положившим в ее сумочку дорогое ожерелье, чтобы избежать трудностей на таможне...



Страна: Великобритания, США
Продолжительность: 01:51:13
Перевод: Профессиональный (многоголосый, закадровый) Первый канал + Профессиональный (двухголосый, закадровый) ЕА + Авторский (одноголосый, закадровый) П.Карцев + Авторский (одноголосый, закадровый) Ю.Живов

Файл
Качество: BDRip 1080p
Формат: Matroska
Видео: 1920x814 at 23.976 fps, x264, ~12200 kbps
Аудио#1: Russian: 48 kHz, AC3, 2/0 (L,R) ch, ~192 kbps avg |Многоголосый закадровый, Первый канал|
Аудио#2: Russian: 48 kHz, AC3, 2/0 (L,R) ch, ~192 kbps avg |Двухголосый закадровый, ЕА|
Аудио#3: Russian: 48 kHz, DTS, 3/2 (L,C,R,l,r) + LFE ch, ~1509 kbps avg |Авторский, П.Карцев|
Аудио#4: Russian: 48 kHz, DTS, 3/2 (L,C,R,l,r) + LFE ch, ~1509 kbps avg |Авторский, Ю.Живов|
Аудио#5: English: 48 kHz, DTS, 3/2 (L,C,R,l,r) + LFE ch, ~1509 kbps avg
Субтитры: English
***Сохранены оригинальные главы как на Blu-ray.
***Релиз: msltel.
Роль, которую сыграл Кевин Клайн, вначале предназначалась французскому актёру Жерару Депардье.
Во французском разговорном Кевина Клайна натаскивал профессор
Общее
Уникальный идентификатор : 248437247968482605227481411838491273121 (0xBAE746052B25DF27A876C9BCE7BCA7A1)
Полное имя : Французский поцелуй.1995.BDRip.1080p by msltel.mkv
Формат : Matroska
Версия формата : Version 4 / Version 2
Размер файла : 13,6 Гбайт
Продолжительность : 1 ч. 51 м.
Общий поток : 17,5 Мбит/сек
Название фильма : Rip by msltel
Дата кодирования : UTC 2018-01-29 02:14:40
Программа кодирования : mkvmerge v8.2.0 ('World of Adventure') 64bit
Библиотека кодирования : libebml v1.3.1 + libmatroska v1.4.2

Видео
Идентификатор : 1
Формат : AVC
Формат/Информация : Advanced Video Codec
Профиль формата : High@L4.1
Параметр CABAC формата : Да
Параметр ReFrames формата : 4 кадра
Идентификатор кодека : V_MPEG4/ISO/AVC
Продолжительность : 1 ч. 51 м.
Битрейт : 12,2 Мбит/сек
Ширина : 1920 пикселей
Высота : 814 пикселей
Соотношение сторон : 2,35:1
Режим частоты кадров : Постоянный
Частота кадров : 23,976 кадра/сек
Цветовое пространство : YUV
Субдискретизация насыщенности : 4:2:0
Битовая глубина : 8 бит
Тип развёртки : Прогрессивная
Бит/(Пиксели*Кадры) : 0.326
Размер потока : 9,50 Гбайт (70%)
Библиотека кодирования : x264 core 146 r2538 121396c
Настройки программы : cabac=1 / ref=4 / deblock=1:-3:-2 / analyse=0x3:0x113 / me=umh / subme=11 / psy=1 / psy_rd=1.00:0.15 / mixed_ref=1 / me_range=32 / chroma_me=1 / trellis=2 / 8x8dct=1 / cqm=0 / deadzone=21,11 / fast_pskip=0 / chroma_qp_offset=-3 / threads=6 / lookahead_threads=1 / sliced_threads=0 / nr=0 / decimate=1 / interlaced=0 / bluray_compat=0 / constrained_intra=0 / bframes=7 / b_pyramid=2 / b_adapt=2 / b_bias=0 / direct=1 / weightb=1 / open_gop=0 / weightp=2 / keyint=230 / keyint_min=23 / scenecut=40 / intra_refresh=0 / rc_lookahead=40 / rc=crf / mbtree=0 / crf=17.7 / qcomp=0.60 / qpmin=0 / qpmax=69 / qpstep=4 / vbv_maxrate=62500 / vbv_bufsize=78125 / crf_max=0.0 / nal_hrd=none / filler=0 / ip_ratio=1.40 / pb_ratio=1.30 / aq=1:1.00
Язык : English
Default : Да
Forced : Нет

Аудио #1
Идентификатор : 2
Формат : AC-3
Формат/Информация : Audio Coding 3
Расширение режима : CM (complete main)
Параметр Endianness формата : Big
Идентификатор кодека : A_AC3
Продолжительность : 1 ч. 51 м.
Вид битрейта : Постоянный
Битрейт : 192 Кбит/сек
Каналы : 2 канала
Расположение каналов : Front: L R
Частота : 48,0 КГц
Битовая глубина : 16 бит
Метод сжатия : С потерями
Размер потока : 153 Мбайт (1%)
Заголовок : MVO.Первый канал
Язык : Russian
Default : Да
Forced : Нет

Аудио #2
Идентификатор : 3
Формат : AC-3
Формат/Информация : Audio Coding 3
Расширение режима : CM (complete main)
Параметр Endianness формата : Big
Идентификатор кодека : A_AC3
Продолжительность : 1 ч. 51 м.
Вид битрейта : Постоянный
Битрейт : 192 Кбит/сек
Каналы : 2 канала
Расположение каналов : Front: L R
Частота : 48,0 КГц
Битовая глубина : 16 бит
Метод сжатия : С потерями
Размер потока : 153 Мбайт (1%)
Заголовок : DVO
Default : Нет
Forced : Нет

Аудио #3
Идентификатор : 4
Формат : DTS
Формат/Информация : Digital Theater Systems
Режим : 16
Параметр Endianness формата : Big
Идентификатор кодека : A_DTS
Продолжительность : 1 ч. 51 м.
Вид битрейта : Постоянный
Битрейт : 1509 Кбит/сек
Каналы : 6 каналов
Расположение каналов : Front: L C R, Side: L R, LFE
Частота : 48,0 КГц
Битовая глубина : 24 бит
Метод сжатия : С потерями
Размер потока : 1,17 Гбайт (9%)
Заголовок : Юрий Живов
Язык : Russian
Default : Нет
Forced : Нет

Аудио #4
Идентификатор : 5
Формат : DTS
Формат/Информация : Digital Theater Systems
Режим : 16
Параметр Endianness формата : Big
Идентификатор кодека : A_DTS
Продолжительность : 1 ч. 51 м.
Вид битрейта : Постоянный
Битрейт : 1509 Кбит/сек
Каналы : 6 каналов
Расположение каналов : Front: L C R, Side: L R, LFE
Частота : 48,0 КГц
Битовая глубина : 24 бит
Метод сжатия : С потерями
Размер потока : 1,17 Гбайт (9%)
Заголовок : Пётр Карцев
Язык : Russian
Default : Нет
Forced : Нет

Аудио #5
Идентификатор : 6
Формат : DTS
Формат/Информация : Digital Theater Systems
Режим : 16
Параметр Endianness формата : Big
Идентификатор кодека : A_DTS
Продолжительность : 1 ч. 51 м.
Вид битрейта : Постоянный
Битрейт : 1509 Кбит/сек
Каналы : 6 каналов
Расположение каналов : Front: L C R, Side: L R, LFE
Частота : 48,0 КГц
Битовая глубина : 24 бит
Метод сжатия : С потерями
Размер потока : 1,17 Гбайт (9%)
Заголовок : original
Язык : English
Default : Нет
Forced : Нет

Текст
Идентификатор : 7
Формат : UTF-8
Идентификатор кодека : S_TEXT/UTF8
Идентификатор кодека/Информация : UTF-8 Plain Text
Заголовок : английские
Язык : English
Default : Нет
Forced : Нет

Меню
00:00:00.000 : :Chapter 01
00:07:55.641 : :Chapter 02
00:10:00.266 : :Chapter 03
00:15:53.410 : :Chapter 04
00:21:43.844 : :Chapter 05
00:24:15.704 : :Chapter 06
00:30:33.164 : :Chapter 07
00:35:13.152 : :Chapter 08
00:39:37.500 : :Chapter 09
00:44:16.570 : :Chapter 10
00:50:25.147 : :Chapter 11
00:56:33.431 : :Chapter 12
01:01:14.170 : :Chapter 13
01:06:08.296 : :Chapter 14
01:13:22.106 : :Chapter 15
01:17:17.256 : :Chapter 16
01:21:08.280 : :Chapter 17
01:27:26.823 : :Chapter 18
01:34:28.162 : :Chapter 19
01:38:29.278 : :Chapter 20
01:42:53.584 : :Chapter 21
01:44:41.942 : :Chapter 22
01:51:12.791 : :Chapter 23


_________________
Проголосуй за трекер Открытый торрент трекер - RUS-MEDIA.ORG

Проголосуй Открытый торрент трекер - RUS-MEDIA.ORG


Вернуться к началу
 Профиль Отправить личное сообщение  
 
   Похожие торренты   Автор   Торрент   Размер 
В этой теме нет новых непрочитанных сообщений. Французский поцелуй / French Kiss [Драма, мелодрама, комедия, 1995] BDRip 1080p, Mvo

salma3

0 | 0

11.98 ГБ

В этой теме нет новых непрочитанных сообщений. Французский поцелуй / French Kiss [Драма, мелодрама, комедия, 1995] BDRip, Mvo

salma3

0 | 0

2.19 ГБ

В этой теме нет новых непрочитанных сообщений. Французский поцелуй / French Kiss [драма, мелодрама, комедия, 1995] BDRemux 1080p, Mvo

salma3

41 | 67

41.38 ГБ

В этой теме нет новых непрочитанных сообщений. Шанхайский поцелуй / Shanghai Kiss [Комедия, драма, мелодрама, 2007] BDRip 720p, Mvo+Sub

salma3

50 | 12

7.46 ГБ

В этой теме нет новых непрочитанных сообщений. Поцелуй меня, глупенький / Kiss Me, Stupid [мелодрама, комедия, 1964] BDRip, Mvo

salma3

11 | 2

1.45 ГБ

В этой теме нет новых непрочитанных сообщений. Поцелуй проклятой / Kiss of the Damned [драма, ужасы, триллер, мелодрама, 2012] BDRip 720p, Mvo

salma3

17 | 7

4.45 ГБ

В этой теме нет новых непрочитанных сообщений. Прощальный поцелуй / The Last Kiss [Комедия, мелодрама, драма, 2006] ВDRip 1080р, Dub+Sub

salma3

122 | 123

3.88 ГБ


Начать новую тему Ответить на тему  [ 1 сообщение ] 




Для Мосгорсуда, Роскомнадзора и рекламодателей:: mosgorsud-torrent[собачка]yandex.ru
cron