Торрент файл
скачать торрент магнет ссылка Добавлен: 16 фев 2018, 12:27
Размер: 26.87 ГБ
Сидеров: 0
Личеров: 0
Статус: (salma3)
Автор

СообщениеДобавлено: 16 фев 2018, 12:27 

Не в сети
Супермодератор
Аватара пользователя
Дата регистрации:
15 фев 2012, 16:44
Возраст: 29
Спасибо: 7401 / 2147
Сообщения: 78470
Год выхода: 2017
Жанр: Триллер, ужасы, детектив
Режиссер: Кристофер Лэндон

В ролях: Джессика Рот, Израэль Бруссар, Руби Модин, Лаура Клифтон, Джейсон Бэйл, Роб Мелло, Рэйчел Мэттьюз, Фи Ву и др.

О фильме:
Каждый в универе мечтал попасть на её день рождения, но праздник был безнадежно испорчен незнакомцем в маске, убившим виновницу торжества. Однако судьба преподнесла имениннице леденящий душу подарок — бесконечный запас жизней. И теперь у девушки появился шанс вычислить своего убийцу, ведь этот день будет повторяться снова и снова…



Страна: США
Продолжительность: 01:36:11
Перевод(ы): Дублированный | Лицензия
#2: Авторский | Яроцкий

Качество: BDRemux 1080p
Видео: MPEG-4 AVC, 1920x1080, 31.4 Mbit/s, 23.976 fps
Аудио01: 48 kHz, DTS, 5.1, 768 Kbps | Дублированный | RUS
Аудио02: 48 kHz, DTS-HD MA, 5.1, 3840 Kbps | Авторский | RUS
Аудио 03: 48 kHz, DTS-HD MA, 5.1, 3840 Kbps | Оригинал | ENG
Субтитры: Русские (forced, full), английские[/center]

General
Unique ID : 12751758418173234796282848255571401398 (0x997E63B05D0C37A972DA92F7CDC1AB6)
Complete name : C:Video111Happy.Death.Day.2017.BDREMUX.1080p.ExKinoRay.mkv
Format : Matroska
Format version : Version 4 / Version 2
File size : 26.9 GiB
Duration : 1 h 36 min
Overall bit rate mode : Variable
Overall bit rate : 40.0 Mb/s
Movie name : Happy Death Day 2017 from ExKinoRay
Encoded date : UTC 2018-02-16 03:47:01
Writing application : mkvmerge v20.0.0 ('I Am The Sun') 64-bit
Writing library : libebml v1.3.5 + libmatroska v1.4.8

Video
ID : 1
Format : AVC
Format/Info : Advanced Video Codec
Format profile : High@L4.1
Format settings : CABAC / 4 Ref Frames
Format settings, CABAC : Yes
Format settings, ReFrames : 4 frames
Codec ID : V_MPEG4/ISO/AVC
Duration : 1 h 36 min
Bit rate mode : Variable
Bit rate : 31.4 Mb/s
Maximum bit rate : 35.0 Mb/s
Width : 1 920 pixels
Height : 1 080 pixels
Display aspect ratio : 16:9
Frame rate mode : Constant
Frame rate : 23.976 (24000/1001) FPS
Color space : YUV
Chroma subsampling : 4:2:0
Bit depth : 8 bits
Scan type : Progressive
Bits/(Pixel*Frame) : 0.632
Stream size : 21.1 GiB (79%)
Language : English
Default : Yes
Forced : No

Audio #1
ID : 2
Format : DTS
Format/Info : Digital Theater Systems
Codec ID : A_DTS
Duration : 1 h 36 min
Bit rate mode : Constant
Bit rate : 768 kb/s
Channel(s) : 6 channels
Channel positions : Front: L C R, Side: L R, LFE
Sampling rate : 48.0 kHz
Frame rate : 93.750 FPS (512 SPF)
Bit depth : 24 bits
Compression mode : Lossy
Stream size : 528 MiB (2%)
Title : Dub [License]
Language : Russian
Default : Yes
Forced : No

Audio #2
ID : 3
Format : DTS
Format/Info : Digital Theater Systems
Format profile : MA / Core
Codec ID : A_DTS
Duration : 1 h 36 min
Bit rate mode : Variable / Constant
Bit rate : 3 840 kb/s / 1 509 kb/s
Channel(s) : 6 channels
Channel positions : Front: L C R, Side: L R, LFE
Sampling rate : 48.0 kHz
Frame rate : 93.750 FPS (512 SPF)
Bit depth : 24 bits
Compression mode : Lossless / Lossy
Stream size : 2.62 GiB (10%)
Title : AVO [kyberpunk]
Language : Russian
Default : No
Forced : No

Audio #3
ID : 4
Format : DTS
Format/Info : Digital Theater Systems
Format profile : MA / Core
Codec ID : A_DTS
Duration : 1 h 36 min
Bit rate mode : Variable / Constant
Bit rate : 3 840 kb/s / 1 509 kb/s
Channel(s) : 6 channels
Channel positions : Front: L C R, Side: L R, LFE
Sampling rate : 48.0 kHz
Frame rate : 93.750 FPS (512 SPF)
Bit depth : 24 bits
Compression mode : Lossless / Lossy
Stream size : 2.61 GiB (10%)
Title : Original
Language : English
Default : No
Forced : No

Text #1
ID : 5
Format : UTF-8
Codec ID : S_TEXT/UTF8
Codec ID/Info : UTF-8 Plain Text
Duration : 1 h 34 min
Bit rate : 1 b/s
Count of elements : 35
Stream size : 979 Bytes (0%)
Title : Forced
Language : Russian
Default : Yes
Forced : No

Text #2
ID : 6
Format : UTF-8
Codec ID : S_TEXT/UTF8
Codec ID/Info : UTF-8 Plain Text
Duration : 1 h 28 min
Bit rate : 87 b/s
Count of elements : 1280
Stream size : 57.2 KiB (0%)
Title : Full
Language : Russian
Default : No
Forced : No

Text #3
ID : 7
Format : UTF-8
Codec ID : S_TEXT/UTF8
Codec ID/Info : UTF-8 Plain Text
Duration : 1 h 30 min
Bit rate : 55 b/s
Count of elements : 1431
Stream size : 36.9 KiB (0%)
Title : Full
Language : English
Default : No
Forced : No

Menu
00:00:00.000 : en:Chapter 01
00:04:54.460 : en:Chapter 02
00:10:26.000 : en:Chapter 03
00:14:10.683 : en:Chapter 04
00:21:46.722 : en:Chapter 05
00:25:08.798 : en:Chapter 06
00:29:37.859 : en:Chapter 07
00:33:09.320 : en:Chapter 08
00:37:50.142 : en:Chapter 09
00:41:46.170 : en:Chapter 10
00:44:54.191 : en:Chapter 11
00:53:07.934 : en:Chapter 12
00:57:28.361 : en:Chapter 13
01:00:18.448 : en:Chapter 14
01:07:41.557 : en:Chapter 15
01:12:16.290 : en:Chapter 16
01:16:35.090 : en:Chapter 17
01:21:17.080 : en:Chapter 18
01:27:13.645 : en:Chapter 19
01:30:24.168 : en:Chapter 20


Релиз от: Автор релиза:


_________________
Проголосуй за трекер Открытый торрент трекер - RUS-MEDIA.ORG

Проголосуй Открытый торрент трекер - RUS-MEDIA.ORG


Вернуться к началу
 Профиль Отправить личное сообщение  
 
   Похожие торренты   Автор   Торрент   Размер 
В этой теме нет новых непрочитанных сообщений. Счастливого дня смерти / Happy Death Day [Триллер, ужасы, детектив, 2017] BDRemux 1080p, Mvo

salma3

2 | 1

26.92 ГБ

В этой теме нет новых непрочитанных сообщений. Счастливого дня смерти / Happy Death Day [Триллер, ужасы, детектив, 2017] BDRemux 1080p, Mvo

salma3

1 | 142

24.3 ГБ

В этой теме нет новых непрочитанных сообщений. Счастливого дня смерти / Happy Death Day [Триллер, ужасы, детектив, 2017] BDRip 1080p, Dub [Лицензия]

salma3

0 | 0

8.13 ГБ

В этой теме нет новых непрочитанных сообщений. Счастливого дня смерти / Happy Death Day [Триллер, ужасы, детектив, 2017] BDRip-HEVC 1080p, Dub [Лицензия]

salma3

19 | 1

4.18 ГБ

В этой теме нет новых непрочитанных сообщений. Счастливого дня смерти / Happy Death Day [Триллер, ужасы, детектив, 2017] HDRip-AVC, Dub [Лицензия]

salma3

0 | 0

743.52 МБ

В этой теме нет новых непрочитанных сообщений. Счастливого дня смерти / Happy Death Day [Триллер, ужасы, детектив, 2017] BDRip, Dub [Лицензия]

salma3

44 | 73

1.46 ГБ

В этой теме нет новых непрочитанных сообщений. Счастливого дня смерти / Happy Death Day [ужасы, триллер, детектив, 2017] WEB-DL 1080p, Dub [Open Matte]

salma3

0 | 0

6.95 ГБ


Начать новую тему Ответить на тему  [ 1 сообщение ] 




Для Мосгорсуда, Роскомнадзора и рекламодателей:: mosgorsud-torrent[собачка]yandex.ru
cron