Торрент файл
скачать торрент магнет ссылка Добавлен: 16 фев 2018, 16:33
Размер: 10.03 ГБ
Сидеров: 0
Личеров: 0
Статус: (salma3)
Автор

СообщениеДобавлено: 16 фев 2018, 16:33 

Не в сети
Супермодератор
Аватара пользователя
Дата регистрации:
15 фев 2012, 16:44
Возраст: 29
Спасибо: 7420 / 2147
Сообщения: 79751
Год выпуска: 1977
Жанр: Комедия, фэнтези, экранизация
Режиссер: Карл Райнер

В ролях: Джон Денвер, Джордж Бёрнс, Тери Гарр, Дональд Плезенс, Ральф Беллами, Уильям Дэниелс, Барнард Хьюз, Пол Сорвино, Бэрри Салливан, Дина Шор, Джефф Кори, Джордж Ферт, Дэвид Огден Стайерз, Титос Вандис, Муси Дриер, Джерри Данфи, Марио Мачадо, Конни Сойер, Джейн Ламберт, Байрон Пол, Гектор Моралес, Уандерфул Смит, Мёрфи Данн, Зейн Базби, Дэннис Корт, Карл Райнер, Джон Эштон

О фильме: Обычному менеджеру супермаркета, Джерри Лэндерсу (Джон Денвер) Бог присылает по почте в конверте без марки письмо, вызывая на собеседование. Тот не сразу поверил, что к нему, среднему американцу, обращается Создатель, но Господь, явившийся в образе пожилого мужчины в очках и бейсбольной кепке (Джордж Барнс), сумел убедить парня, что тот избран в качестве спасителя, как когда-то был избран Моисей. Верная и любящая жена Лэндерса решила, что муж сошел с ума, также воспринимали новость и все остальные. Джерри должен рассказать людям, что Бог существует, что он разочарован тем, как люди распоряжаются его дарами. Честный Джерри обращается в средства массовой информации. Настает массовая истерия. Представители разных религий требуют, чтобы Бог ответил на 50 вопросов, написанных на древнем арамейском языке. Начинается судебный процесс. Лэндерса обвиняют в клевете, Бог выступает в качестве свидетеля... Экранизация по произведению: Эйвери Кормэн.



Выпущено: США, Warner Bros. Pictures
Продолжительность: 01:37:50
Перевод: Дублированный (Варус Видео), профессиональный многоголосый
Субтитры: Английские

Качество: WEB-DL 1080p
Видео: MPEG-4 AVC, 1920x1080, 14100 Кбит/с, 23.976 кадр/с
Аудио #1: Русский (AC3, 2 ch, 192 Кбит/с) | (Варус Видео)
Аудио #2: Русский (AC3, 2 ch, 192 Кбит/с) | (MVO)
Аудио #3: английский (AC3, 2 ch, 224 Кбит/с)
Релиз:

Format : Matroska
Format version : Version 4 / Version 2
File size : 10.0 GiB
Duration : 1 h 37 min
Overall bit rate mode : Variable
Overall bit rate : 14.7 Mb/s
Movie name : OH_GOD_1977_WEB-DL_1080P -BLUEBIRD
Encoded date : UTC 2017-01-17 13:00:16
Writing application : mkvmerge v7.1.0 ('Good Love') 64bit built on Jul 27 2014 13:06:55
Writing library : libebml v1.3.0 + libmatroska v1.4.1

Video
ID : 1
Format : AVC
Format/Info : Advanced Video Codec
Format profile : High@L4
Format settings, CABAC : Yes
Format settings, ReFrames : 4 frames
Codec ID : V_MPEG4/ISO/AVC
Duration : 1 h 37 min
Bit rate mode : Variable
Bit rate : 14.1 Mb/s
Maximum bit rate : 15.0 Mb/s
Width : 1 920 pixels
Height : 1 080 pixels
Display aspect ratio : 16:9
Frame rate mode : Constant
Frame rate : 23.976 (24000/1001) FPS
Color space : YUV
Chroma subsampling : 4:2:0
Bit depth : 8 bits
Scan type : Progressive
Bits/(Pixel*Frame) : 0.283
Stream size : 9.62 GiB (96%)
Title : OH_GOD_1977_WEB-DL_1080P -BLUEBIRD [AMAZON]
Writing library : x264 core 148 r2623 d5b2374
Encoding settings : cabac=1 / ref=4 / deblock=1:-1:-1 / analyse=0x3:0x133 / me=umh / subme=9 / psy=1 / psy_rd=1.00:0.15 / mixed_ref=1 / me_range=24 / chroma_me=1 / trellis=2 / 8x8dct=1 / cqm=0 / deadzone=21,11 / fast_pskip=1 / chroma_qp_offset=-3 / threads=34 / lookahead_threads=5 / sliced_threads=0 / nr=150 / decimate=1 / interlaced=0 / bluray_compat=0 / constrained_intra=0 / bframes=8 / b_pyramid=2 / b_adapt=2 / b_bias=0 / direct=3 / weightb=1 / open_gop=0 / weightp=2 / keyint=120 / keyint_min=61 / scenecut=0 / intra_refresh=0 / rc_lookahead=120 / rc=crf / mbtree=1 / crf=18.0 / qcomp=0.60 / qpmin=0 / qpmax=69 / qpstep=4 / vbv_maxrate=15000 / vbv_bufsize=31250 / crf_max=0.0 / nal_hrd=vbr / filler=0 / ip_ratio=1.40 / aq=3:1.00
Language : English
Default : Yes
Forced : No
Color range : Limited
Color primaries : BT.709
Transfer characteristics : BT.709
Matrix coefficients : BT.709

Audio #1
ID : 2
Format : AC-3
Format/Info : Audio Coding 3
Mode extension : CM (complete main)
Format settings, Endianness : Big
Codec ID : A_AC3
Duration : 1 h 37 min
Bit rate mode : Constant
Bit rate : 192 kb/s
Channel(s) : 2 channels
Channel positions : Front: L R
Sampling rate : 48.0 kHz
Frame rate : 31.250 FPS (1536 spf)
Bit depth : 16 bits
Compression mode : Lossy
Stream size : 134 MiB (1%)
Title : Dub (Varus Video) [VHS]
Language : Russian
Default : Yes
Forced : No

Audio #2
ID : 3
Format : AC-3
Format/Info : Audio Coding 3
Mode extension : CM (complete main)
Format settings, Endianness : Big
Codec ID : A_AC3
Duration : 1 h 37 min
Bit rate mode : Constant
Bit rate : 192 kb/s
Channel(s) : 2 channels
Channel positions : Front: L R
Sampling rate : 48.0 kHz
Frame rate : 31.250 FPS (1536 spf)
Bit depth : 16 bits
Compression mode : Lossy
Stream size : 134 MiB (1%)
Title : MVO
Language : Russian
Default : No
Forced : No

Audio #3
ID : 4
Format : E-AC-3
Format/Info : Enhanced Audio Coding 3
Format settings, Endianness : Big
Codec ID : A_EAC3
Duration : 1 h 37 min
Bit rate mode : Constant
Bit rate : 224 kb/s
Channel(s) : 2 channels
Channel positions : Front: L R
Sampling rate : 48.0 kHz
Frame rate : 187.500 FPS (256 spf)
Compression mode : Lossy
Stream size : 157 MiB (2%)
Language : English
Default : No
Forced : No

Text
ID : 5
Format : UTF-8
Codec ID : S_TEXT/UTF8
Codec ID/Info : UTF-8 Plain Text
Duration : 1 h 36 min
Bit rate : 73 b/s
Count of elements : 2116
Stream size : 51.9 KiB (0%)
Language : English
Default : No
Forced : No


_________________
Проголосуй за трекер Открытый торрент трекер - RUS-MEDIA.ORG

Проголосуй Открытый торрент трекер - RUS-MEDIA.ORG


Вернуться к началу
 Профиль Отправить личное сообщение  
 
   Похожие торренты   Автор   Торрент   Размер 
В этой теме нет новых непрочитанных сообщений. Капитан Крюк / Hook [Фэнтези, семейный, экранизация, 1991] BDRemux 1080p, Dub

salma3

0 | 4

31.51 ГБ

В этой теме нет новых непрочитанных сообщений. Другая сторона полуночи / По ту сторону полуночи / The Other Side of Midnight [Триллер, драма, экранизация, 1977] DVDRip-AVC, Mvo

salma3

105 | 31

2.18 ГБ

В этой теме нет новых непрочитанных сообщений. Джабервоки / Jabberwocky [фэнтези, комедия, приключения, 1977] BDRemux 1080р, Dvo [Criterion Collection]

salma3

14 | 5

29.99 ГБ

В этой теме нет новых непрочитанных сообщений. Фантастические твари и где они обитают / Fantastic Beasts and Where to Find Them [Фэнтези, приключения, семейный, экранизация, 2016] BDRemux 1080p, Dub+Sub [3D Video] [Лицензия]

salma3

121 | 107

36.11 ГБ

В этой теме нет новых непрочитанных сообщений. Хоббит: Коллекция / The Hobbit: Collection (Питер Джексон) [2012-2014 , Фэнтези, приключения, экранизация , BluRay 1080p] [DD5.1] [ Subs Rus,Ukr,ENG] [ Лицензия]

marya111

0 | 1

69.09 ГБ

В этой теме нет новых непрочитанных сообщений. Джабервоки / Бармаглот / Jabberwocky [фэнтези, комедия, приключения, 1977] BDRip 720p, Dvo [Criterion Collection]

salma3

0 | 0

12.94 ГБ

В этой теме нет новых непрочитанных сообщений. Дом странных детей Мисс Перегрин / Miss Peregrine's Home for Peculiar Children [Фэнтези, приключения, экранизация, 2016] BDRemux 1080p, Dub [лицензия ]

salma3

473 | 420

27.21 ГБ


Начать новую тему Ответить на тему  [ 1 сообщение ] 




Для Мосгорсуда, Роскомнадзора и рекламодателей:: mosgorsud-torrent[собачка]yandex.ru
cron