Торрент файл
скачать торрент магнет ссылка Добавлен: 27 фев 2018, 01:44
Размер: 7.98 ГБ
Сидеров: 0
Личеров: 0
Статус: (salma3)
Автор

СообщениеДобавлено: 27 фев 2018, 01:44 

Не в сети
Супермодератор
Аватара пользователя
Дата регистрации:
15 фев 2012, 16:44
Возраст: 29
Спасибо: 7401 / 2147
Сообщения: 78470
Год выхода: 1999
Жанр: ужасы, триллер, драма
Режиссер: Рассел Малкэй

В ролях: Кристофер Ламберт, Лиленд Орсер, Роберт Джой, Барбара Тайсон, Рик Фокс, Дэвид Кроненберг, Джонатан Поттс, Питер МакНейл, Филип Уильямс, Джейн Иствуд, ...

О фильме: Детектив Джон Прудомм получает задание расследовать серию убийств, которые связаны тем, что маньяк — убийца отрезает у умирающих жертв то ногу, то руку, то голову. Не понимая мотивов этих отвратительных преступлений, полиция бессильно наблюдает, как маньяк собирает человеческое тело из кусков других.
Тем временем Прудомм находит убийцу. Его причастность к убийствам очевидна, но не доказана. После суда он с улыбкой выходит на свободу, чтобы продолжить свои кровавые деяния. Но теперь он осторожнее, и поймать его гораздо труднее…



Страна: США, Канада
Продолжительность: 01:47:38
Перевод: Профессиональный (двуголосый, закадровый) ?

Кодек: x264
Качество: BDRip 1080p
Видео: 1920x1040, 8660 kbps, 24 fps
Аудио #1: AC-3, 6 ch, 448 kbps (Rus) - DVO
Аудио #2: DTS, 6 ch, 1509 kbps (Eng)
Субтитры: русские, английские

Общее
Уникальный идентификатор : 188923775477561529464298084897612914789 (0x8E216548A7F003B5A1849152DA006065)
Полное имя : Воскрешение (Resurrection) 1999 BDRip 1080p.mkv
Формат : Matroska
Версия формата : Version 2
Размер файла : 7,98 Гбайт
Продолжительность : 1 ч. 47 м.
Общий поток : 10,6 Мбит/сек
Дата кодирования : UTC 2018-02-26 16:52:31
Программа кодирования : mkvmerge v4.0.0 ('The Stars were mine') сборка от Jun 6 2010 16:18:42
Библиотека кодирования : libebml v1.0.0 + libmatroska v1.0.0

Видео
Идентификатор : 1
Формат : AVC
Формат/Информация : Advanced Video Codec
Профиль формата : High@L4.1
Параметр CABAC формата : Да
Параметр ReFrames формата : 4 кадра
Идентификатор кодека : V_MPEG4/ISO/AVC
Продолжительность : 1 ч. 47 м.
Битрейт : 8660 Кбит/сек
Ширина : 1920 пикселей
Высота : 1040 пикселей
Соотношение сторон : 1,85:1
Режим частоты кадров : Постоянный
Частота кадров : 24,000 кадра/сек
Цветовое пространство : YUV
Субдискретизация насыщенности : 4:2:0
Битовая глубина : 8 бит
Тип развёртки : Прогрессивная
Бит/(Пиксели*Кадры) : 0.181
Размер потока : 6,35 Гбайт (80%)
Библиотека кодирования : x264 core 155 r2901 7d0ff22
Настройки программы : cabac=1 / ref=4 / deblock=1:0:0 / analyse=0x3:0x113 / me=umh / subme=8 / psy=1 / psy_rd=1.00:0.00 / mixed_ref=1 / me_range=16 / chroma_me=1 / trellis=2 / 8x8dct=1 / cqm=0 / deadzone=21,11 / fast_pskip=0 / chroma_qp_offset=-2 / threads=12 / lookahead_threads=2 / sliced_threads=0 / nr=0 / decimate=1 / interlaced=0 / bluray_compat=0 / constrained_intra=0 / bframes=3 / b_pyramid=2 / b_adapt=1 / b_bias=0 / direct=1 / weightb=1 / open_gop=0 / weightp=2 / keyint=250 / keyint_min=24 / scenecut=40 / intra_refresh=0 / rc_lookahead=50 / rc=2pass / mbtree=1 / bitrate=8660 / ratetol=1.0 / qcomp=0.60 / qpmin=0 / qpmax=69 / qpstep=4 / cplxblur=20.0 / qblur=0.5 / ip_ratio=1.40 / aq=1:1.00
Язык : English
Default : Нет
Forced : Нет

Аудио #1
Идентификатор : 2
Формат : AC-3
Формат/Информация : Audio Coding 3
Расширение режима : CM (complete main)
Параметр Endianness формата : Big
Идентификатор кодека : A_AC3
Продолжительность : 1 ч. 47 м.
Вид битрейта : Постоянный
Битрейт : 448 Кбит/сек
Каналы : 6 каналов
Расположение каналов : Front: L C R, Side: L R, LFE
Частота : 48,0 КГц
Частота кадров : 31,250 кадров/сек (1536 spf)
Метод сжатия : С потерями
Размер потока : 345 Мбайт (4%)
Заголовок : DVO
Язык : Russian
Default : Нет
Forced : Нет

Аудио #2
Идентификатор : 3
Формат : DTS
Формат/Информация : Digital Theater Systems
Режим : 16
Параметр Endianness формата : Big
Идентификатор кодека : A_DTS
Продолжительность : 1 ч. 47 м.
Вид битрейта : Постоянный
Битрейт : 1509 Кбит/сек
Каналы : 6 каналов
Расположение каналов : Front: L C R, Side: L R, LFE
Частота : 48,0 КГц
Частота кадров : 93,750 кадра/сек (512 spf)
Битовая глубина : 24 бит
Метод сжатия : С потерями
Размер потока : 1,13 Гбайт (14%)
Язык : English
Default : Нет
Forced : Нет

Текст #1
Идентификатор : 4
Формат : UTF-8
Идентификатор кодека : S_TEXT/UTF8
Идентификатор кодека/Информация : UTF-8 Plain Text
Язык : Russian
Default : Нет
Forced : Нет

Текст #2
Идентификатор : 5
Формат : UTF-8
Идентификатор кодека : S_TEXT/UTF8
Идентификатор кодека/Информация : UTF-8 Plain Text
Язык : English
Default : Нет
Forced : Нет


_________________
Проголосуй за трекер Открытый торрент трекер - RUS-MEDIA.ORG

Проголосуй Открытый торрент трекер - RUS-MEDIA.ORG


Вернуться к началу
 Профиль Отправить личное сообщение  
 
   Похожие торренты   Автор   Торрент   Размер 
В этой теме нет новых непрочитанных сообщений. Воскрешение / Resurrection [Ужасы, триллер, драма, 1999] BDRip 1080p, Dvo

salma3

0 | 0

7.69 ГБ

В этой теме нет новых непрочитанных сообщений. Воскрешение / Resurrection [ужасы, триллер, драма, криминал, детектив. 1999] DVDRip-AVC, Dvo+Avo+Sub

salma3

139 | 14

2.18 ГБ

В этой теме нет новых непрочитанных сообщений. Воскрешение / Resurrection [триллер, драма, криминал, 1999] BDRip 720p, Dvo

salma3

0 | 0

4.7 ГБ

В этой теме нет новых непрочитанных сообщений. Механик: Воскрешение / Mechanic: Resurrection (Боевик, триллер, криминал, 2016) BDRip 1080p | 60 FPS | iTunes

marya111

312 | 59

10.88 ГБ

В этой теме нет новых непрочитанных сообщений. Механик: Воскрешение / Mechanic: Resurrection [боевик, триллер, криминал, 2016] BDRip 1080p, Dub+Mvo+Avo+Sub [Лицензия]

salma3

397 | 68

7.74 ГБ

В этой теме нет новых непрочитанных сообщений. Чужой 4: Воскрешение / Alien: Resurrection [фантастика, боевик, триллер, 1997] BDRip 1080p, Dub+Sub [Special Edition]

salma3

52 | 22

4.37 ГБ

В этой теме нет новых непрочитанных сообщений. Чужой 4: Воскрешение / Alien: Resurrection [фантастика, боевик, триллер, 1997] BDRip-HEVC 1080p, Dub [Special Edition]

salma3

35 | 16

7.35 ГБ


Начать новую тему Ответить на тему  [ 1 сообщение ] 




Для Мосгорсуда, Роскомнадзора и рекламодателей:: mosgorsud-torrent[собачка]yandex.ru
cron