Торрент файл
скачать торрент магнет ссылка Добавлен: 01 мар 2018, 12:35
Размер: 15.82 ГБ
Сидеров: 0
Личеров: 0
Статус: (salma3)
Автор

СообщениеДобавлено: 01 мар 2018, 12:35 

В сети
Супермодератор
Аватара пользователя
Дата регистрации:
15 фев 2012, 16:44
Возраст: 29
Спасибо: 7400 / 2147
Сообщения: 78259
Год выхода: 2018
Жанр: Ужасы
Режиссер: Гэри Дж. Танниклифф

В ролях: Рэнди Уэйн, Хэзер Лэнгенкэмп, Риган Уоллес, Алексис Харрис, Джон Гулагер, Пол Т. Тейлор, Майк Дж. Риган, Дэймон Карни, Молли Никки Андерсон, Мэри Кэтрин Брайант

О фильме: Детективы Шон и Дэвид Картеры расследует дело о жутких серийных убийствах. Объединив усилия с другим детективом, Кристин Эджертон, они следуют за убийцей всё дальше и дальше в лабиринт ужаса, которому нет места в мире живых. Чем глубже они опускаются по спирали в преисподнюю, тем явственнее понимают, что они клюнули не на ту наживку. Похоже, сенобиты ждут вовсе не жертв маньяка.



Страна: США
Продолжительность: 01:21:10
Перевод: любительский (многоголосый), любительский (двухголосый)
Субтитры: русские, английские

Формат: MKV
Качество: BDRemux 1080p
Видео: MPEG-4 AVC / 25001 kbps / 1920x1080 / 23.976 fps
Звук:
Аудио 1: Russian / Dolby Digital Audio / 2.0 / 48 kHz / 192 kbps - Многоголосый (Синема УС)
Аудио 2: Russian / Dolby Digital Audio / 2.0 / 48 kHz / 384 kbps - Двухголосый (HiWay Grope)
Аудио 3: English / DTS-HD Master Audio / 5.1 / 48 kHz / 2318 kbps - Оригинал (Английский)

Format : Matroska
Format version : Version 2
File size : 15.8 GiB
Duration : 1 h 21 min
Overall bit rate mode : Variable
Overall bit rate : 27.9 Mb/s
Movie name : Hellraiser: Judgment (2018) BDRemux 1080p
Encoded date : UTC 2018-03-01 08:02:24
Writing application : mkvmerge v4.9.1 ('Ich will') сборка от Jul 11 2011 23:53:15
Writing library : libebml v1.2.1 + libmatroska v1.1.1

Video
ID : 1
Format : AVC
Format/Info : Advanced Video Codec
Format profile : High@L4.1
Format settings, CABAC : Yes
Format settings, RefFrames : 3 frames
Format settings, GOP : M=3, N=12
Codec ID : V_MPEG4/ISO/AVC
Duration : 1 h 21 min
Bit rate mode : Variable
Maximum bit rate : 35.0 Mb/s
Width : 1 920 pixels
Height : 1 080 pixels
Display aspect ratio : 16:9
Frame rate mode : Constant
Frame rate : 23.976 (24000/1001) FPS
Standard : NTSC
Color space : YUV
Chroma subsampling : 4:2:0
Bit depth : 8 bits
Scan type : Progressive
Title : Восставший из ада: Приговор
Language : English
Default : Yes
Forced : No
Color range : Limited
Color primaries : BT.709
Transfer characteristics : BT.709
Matrix coefficients : BT.709

Audio #1
ID : 2
Format : AC-3
Format/Info : Audio Coding 3
Format settings, Endianness : Big
Codec ID : A_AC3
Duration : 1 h 21 min
Bit rate mode : Constant
Bit rate : 192 kb/s
Channel(s) : 2 channels
Channel positions : Front: L R
Sampling rate : 48.0 kHz
Frame rate : 31.250 FPS (1536 SPF)
Bit depth : 16 bits
Compression mode : Lossy
Stream size : 111 MiB (1%)
Title : MVO (Синема УС)
Language : Russian
Service kind : Complete Main
Default : Yes
Forced : No

Audio #2
ID : 3
Format : AC-3
Format/Info : Audio Coding 3
Format settings, Endianness : Big
Codec ID : A_AC3
Duration : 1 h 21 min
Bit rate mode : Constant
Bit rate : 384 kb/s
Channel(s) : 2 channels
Channel positions : Front: L R
Sampling rate : 48.0 kHz
Frame rate : 31.250 FPS (1536 SPF)
Bit depth : 16 bits
Compression mode : Lossy
Stream size : 223 MiB (1%)
Title : MVO (HiWay Grope)
Language : Russian
Service kind : Complete Main
Default : No
Forced : No

Audio #3
ID : 4
Format : DTS
Format/Info : Digital Theater Systems
Format profile : MA / Core
Mode : 16
Format settings, Endianness : Big
Codec ID : A_DTS
Duration : 1 h 21 min
Bit rate mode : Variable / Constant
Bit rate : Unknown / 1 509 kb/s
Channel(s) : 6 channels
Channel positions : Front: L C R, Side: L R, LFE
Sampling rate : 48.0 kHz
Frame rate : 93.750 FPS (512 SPF)
Bit depth : 24 bits
Compression mode : Lossless / Lossy
Title : Оригинал
Language : English
Default : No
Forced : No

Text #1
ID : 5
Format : UTF-8
Codec ID : S_TEXT/UTF8
Codec ID/Info : UTF-8 Plain Text
Language : Russian
Default : No
Forced : No

Text #2
ID : 6
Format : UTF-8
Codec ID : S_TEXT/UTF8
Codec ID/Info : UTF-8 Plain Text
Language : English
Default : No
Forced : No

Menu
00:00:00.000 : :Chapter 01
00:05:49.557 : :Chapter 02
00:12:04.765 : :Chapter 03
00:15:52.743 : :Chapter 04
00:21:34.876 : :Chapter 05
00:26:13.572 : :Chapter 06
00:31:02.068 : :Chapter 07
00:35:51.232 : :Chapter 08
00:41:51.300 : :Chapter 09
00:48:38.832 : :Chapter 10
00:53:17.611 : :Chapter 11
00:58:53.154 : :Chapter 12
01:02:25.158 : :Chapter 13
01:06:47.670 : :Chapter 14
01:12:42.900 : :Chapter 15
01:17:07.831 : :Chapter 16
01:21:09.823 : :Chapter 17


_________________
Проголосуй за трекер Открытый торрент трекер - RUS-MEDIA.ORG

Проголосуй Открытый торрент трекер - RUS-MEDIA.ORG


Вернуться к началу
 Профиль Отправить личное сообщение  
 
   Похожие торренты   Автор   Торрент   Размер 
В этой теме нет новых непрочитанных сообщений. Восставший из ада 10: Приговор / Hellraiser: Judgment [ужасы, 2018] DVDRip, Mvo

salma3

426 | 111

1.37 ГБ

В этой теме нет новых непрочитанных сообщений. Восставший из ада: Приговор / Hellraiser: Judgment [ужасы, 2018] HDRip 720p, Dvo

salma3

0 | 0

3 ГБ

В этой теме нет новых непрочитанных сообщений. Восставший из ада / Hellraiser [Ужасы, триллер, 1987] BDRemux 1080p, Mvo

salma3

18 | 36

30.37 ГБ

В этой теме нет новых непрочитанных сообщений. Восставший из ада 2 / Hellbound: Hellraiser II [Ужасы, триллер, 1988] BDRemux 1080p, Mvo

salma3

0 | 0

30.64 ГБ

В этой теме нет новых непрочитанных сообщений. Восставший из ада 2 / Hellbound: Hellraiser II [Ужасы, триллер, 1988] BDRemux 1080p, Mvo

salma3

10 | 13

30.64 ГБ

В этой теме нет новых непрочитанных сообщений. Восставший из ада 6: Поиски ада / Hellraiser: Hellseeker [ужасы, триллер, детектив, 2002] BDRemux 1080p, Mvo

salma3

0 | 0

10.66 ГБ

В этой теме нет новых непрочитанных сообщений. Восставший из ада 2 / Hellbound: Hellraiser II [ужасы, триллер, 1988] BDRip, Avo

salma3

0 | 1

1.45 ГБ


Начать новую тему Ответить на тему  [ 1 сообщение ] 




Для Мосгорсуда, Роскомнадзора и рекламодателей:: mosgorsud-torrent[собачка]yandex.ru
cron