Торрент файл
скачать торрент магнет ссылка Добавлен: 05 мар 2018, 12:43
Размер: 10.77 ГБ
Сидеров: 0
Личеров: 0
Статус: (salma3)
Автор

СообщениеДобавлено: 05 мар 2018, 12:43 

Не в сети
Супермодератор
Аватара пользователя
Дата регистрации:
15 фев 2012, 16:44
Возраст: 29
Спасибо: 7393 / 2147
Сообщения: 78044
Год выхода: 2011
Жанр: Триллер, драма
Режиссер: Джо Карнахан

В ролях: Лиам Нисон, Дермот Малруни, Фрэнк Грилло, Джеймс Бэдж, Дэйл Джо Андерсон, Нонсо Анози, Даллас Робертс, Лариса Стадничук, Бен Брэй, Джеймс Битонти

О фильме:
Бескрайние ледяные просторы Аляски, волки и смелые люди в отчаянном положении. Все это и многое другое вы увидите в фильме «Схватка», съемки которого проходили в Британской Колумбии, среди величественных и бескрайних северных просторов. Режиссер картины, Джо Карнахан, нашел местного охотника-траппера, у которого как раз имелось четыре убитых волка: из двух сделали чучела для съемок, остальных же съели члены съемочной группы и актеры (для лучшего вживания в образ). Типаж 57-летнего охотника Дика МакДайармида понравился специалистам по кастингу, и он снялся в небольшом эпизоде в начале фильма. Главную же роль – Джона Оттуэя, снайпера, охраняющего сотрудников нефтедобывающей компании от диких хищников – исполнил суровый Лиам Нисон. Джон в депрессии, он тяжело переживает смерть супруги и почти решился на самоубийство, но ему не дает спустить курок далекий волчий вой в горах. На следующий день нефтяники самолетом возвращаются на большую землю, и тот терпит крушение. Выжившие мужчины слышат вой волчьей стаи совсем близко...



Страна: CША
Продолжительность: 01:57:05
Перевод: Дублированный, авторский

Файл
Кодек: х.264
Качество: BDRip 1080p
Видео: 1920x1080, 23.976 fps, 9940 kbps
Звук:
Russian: AC3 / 5.1 / 640 kbps - дублированный
Russian: AC3 / 5.1 / 640 kbps - Чадов
Russian: AC3 / 5.1 / 640 kbps - Гаврилов
Russian: AC3 / 5.1 / 640 kbps - Сербин
English: AC3 / 5.1 / 640 kbps
Субтитры: Русские, английские

Unique ID : 88049064357567940116390262011654486599 (0x423DA209CEBE013F60CEA569C9CEBA47)
Complete name : C:UsersstimcoDesktopVIDEOthe greyThe Grey.2012.x264.FHDRip.1080p.stimco.mkv
Format : Matroska
Format version : Version 4 / Version 2
File size : 10.7 GiB
Duration : 1 h 57 min
Overall bit rate : 13.1 Mb/s
Movie name : =GREY=
Encoded date : UTC 2018-03-05 05:33:39
Writing application : mkvmerge v21.0.0 ('Tardigrades Will Inherit The Earth') 64-bit
Writing library : libebml v1.3.5 + libmatroska v1.4.8

Video
ID : 1
Format : AVC
Format/Info : Advanced Video Codec
Format profile : High@L4.1
Format settings : CABAC / 4 Ref Frames
Format settings, CABAC : Yes
Format settings, ReFrames : 4 frames
Codec ID : V_MPEG4/ISO/AVC
Duration : 1 h 57 min
Bit rate : 9 940 kb/s
Width : 1 920 pixels
Height : 1 080 pixels
Display aspect ratio : 16:9
Frame rate mode : Constant
Frame rate : 23.976 (24000/1001) FPS
Color space : YUV
Chroma subsampling : 4:2:0
Bit depth : 8 bits
Scan type : Progressive
Bits/(Pixel*Frame) : 0.200
Stream size : 8.13 GiB (76%)
Title : AVC_1080p [9940 kbps]
Writing library : x264 core 155 r2901 7d0ff22
Encoding settings : cabac=1 / ref=4 / deblock=1:-3:-3 / analyse=0x3:0x113 / me=umh / subme=10 / psy=1 / psy_rd=1.00:0.10 / mixed_ref=1 / me_range=57 / chroma_me=1 / trellis=2 / 8x8dct=1 / cqm=0 / deadzone=21,11 / fast_pskip=0 / chroma_qp_offset=-2 / threads=6 / lookahead_threads=1 / sliced_threads=0 / nr=0 / decimate=0 / interlaced=0 / bluray_compat=0 / constrained_intra=0 / bframes=8 / b_pyramid=2 / b_adapt=2 / b_bias=0 / direct=3 / weightb=1 / open_gop=0 / weightp=2 / keyint=240 / keyint_min=23 / scenecut=40 / intra_refresh=0 / rc_lookahead=85 / rc=2pass / mbtree=1 / bitrate=9940 / ratetol=1.0 / qcomp=0.70 / qpmin=0 / qpmax=57 / qpstep=4 / cplxblur=20.0 / qblur=0.5 / vbv_maxrate=62500 / vbv_bufsize=78125 / nal_hrd=none / filler=0 / ip_ratio=1.30 / aq=2:0.70
Language : English
Default : Yes
Forced : No

Audio #1
ID : 2
Format : AC-3
Format/Info : Audio Coding 3
Codec ID : A_AC3
Duration : 1 h 57 min
Bit rate mode : Constant
Bit rate : 640 kb/s
Channel(s) : 6 channels
Channel positions : Front: L C R, Side: L R, LFE
Sampling rate : 48.0 kHz
Frame rate : 31.250 FPS (1536 SPF)
Bit depth : 16 bits
Compression mode : Lossy
Stream size : 536 MiB (5%)
Title : Dub
Language : Russian
Service kind : Complete Main
Default : Yes
Forced : No

Audio #2
ID : 3
Format : AC-3
Format/Info : Audio Coding 3
Codec ID : A_AC3
Duration : 1 h 57 min
Bit rate mode : Constant
Bit rate : 640 kb/s
Channel(s) : 6 channels
Channel positions : Front: L C R, Side: L R, LFE
Sampling rate : 48.0 kHz
Frame rate : 31.250 FPS (1536 SPF)
Bit depth : 16 bits
Compression mode : Lossy
Stream size : 536 MiB (5%)
Title : AVO Chadov
Language : Russian
Service kind : Complete Main
Default : No
Forced : No

Audio #3
ID : 4
Format : AC-3
Format/Info : Audio Coding 3
Codec ID : A_AC3
Duration : 1 h 57 min
Bit rate mode : Constant
Bit rate : 640 kb/s
Channel(s) : 6 channels
Channel positions : Front: L C R, Side: L R, LFE
Sampling rate : 48.0 kHz
Frame rate : 31.250 FPS (1536 SPF)
Bit depth : 16 bits
Compression mode : Lossy
Stream size : 536 MiB (5%)
Title : AVO Gavrilov
Language : Russian
Service kind : Complete Main
Default : No
Forced : No

Audio #4
ID : 5
Format : AC-3
Format/Info : Audio Coding 3
Codec ID : A_AC3
Duration : 1 h 57 min
Bit rate mode : Constant
Bit rate : 640 kb/s
Channel(s) : 6 channels
Channel positions : Front: L C R, Side: L R, LFE
Sampling rate : 48.0 kHz
Frame rate : 31.250 FPS (1536 SPF)
Bit depth : 16 bits
Compression mode : Lossy
Stream size : 536 MiB (5%)
Title : AVO Serbin
Language : Russian
Service kind : Complete Main
Default : No
Forced : No

Audio #5
ID : 6
Format : AC-3
Format/Info : Audio Coding 3
Codec ID : A_AC3
Duration : 1 h 57 min
Bit rate mode : Constant
Bit rate : 640 kb/s
Channel(s) : 6 channels
Channel positions : Front: L C R, Side: L R, LFE
Sampling rate : 48.0 kHz
Frame rate : 31.250 FPS (1536 SPF)
Bit depth : 16 bits
Compression mode : Lossy
Stream size : 536 MiB (5%)
Language : English
Service kind : Complete Main
Default : No
Forced : No

Text
ID : 7
Format : UTF-8
Codec ID : S_TEXT/UTF8
Codec ID/Info : UTF-8 Plain Text
Duration : 1 h 47 min
Bit rate : 54 b/s
Count of elements : 902
Stream size : 43.1 KiB (0%)
Language : Russian
Default : No
Forced : No

Menu
00:00:00.000 : en:00:00:00.000
00:07:07.427 : en:00:07:07.427
00:11:34.235 : en:00:11:34.235
00:17:52.070 : en:00:17:52.070
00:23:41.420 : en:00:23:41.420
00:30:47.178 : en:00:30:47.178
00:35:30.128 : en:00:35:30.128
00:43:29.982 : en:00:43:29.982
00:47:08.784 : en:00:47:08.784
00:50:57.012 : en:00:50:57.012
00:59:04.791 : en:00:59:04.791
01:04:06.384 : en:01:04:06.384
01:11:31.787 : en:01:11:31.787
01:14:54.656 : en:01:14:54.656
01:19:54.247 : en:01:19:54.247
01:24:16.051 : en:01:24:16.051
01:33:33.691 : en:01:33:33.691
01:39:01.018 : en:01:39:01.018
01:41:12.691 : en:01:41:12.691
01:49:22.347 : en:01:49:22.347


_________________
Проголосуй за трекер Открытый торрент трекер - RUS-MEDIA.ORG

Проголосуй Открытый торрент трекер - RUS-MEDIA.ORG


Вернуться к началу
 Профиль Отправить личное сообщение  
 
   Похожие торренты   Автор   Торрент   Размер 
В этой теме нет новых непрочитанных сообщений. Схватка / The Grey [Боевик, триллер, драма, 2011] BDRip-AVC, Dub [Open Matte]

salma3

28 | 0

2.86 ГБ

В этой теме нет новых непрочитанных сообщений. Схватка / The Grey [Боевик, триллер, драма, 2011] BDRip 720p, Dub [Open Matte]

salma3

13 | 1

5.26 ГБ

В этой теме нет новых непрочитанных сообщений. Схватка / The Grey (Джо Карнахан) [2012, боевик, триллер, драма, приключения, BDRip (1080p)]

marya111

0 | 0

8.76 ГБ

В этой теме нет новых непрочитанных сообщений. Механик / The Mechanic [боевик, триллер, драма, 2011] Blu-ray 1080p, Dub [Open Matte]

salma3

0 | 0

21.86 ГБ

В этой теме нет новых непрочитанных сообщений. Экстрасенсы / Solace [триллер, драма, криминал, 2015] BDRip-HEVC 1080p, Dub [Лицензия] [Open Matte]

salma3

1 | 3

4.55 ГБ

В этой теме нет новых непрочитанных сообщений. Пророк / Next [Фантастика, боевик, триллер, 2007] BDRip 1080p, Dub [Open Matte]

salma3

79 | 6

8.34 ГБ

В этой теме нет новых непрочитанных сообщений. Неудержимые / The Expendables [боевик, триллер, приключения, 2010] BDRip 1080p, Dub [Open Matte]

salma3

1 | 19

10.11 ГБ


Начать новую тему Ответить на тему  [ 1 сообщение ] 




Для Мосгорсуда, Роскомнадзора и рекламодателей:: mosgorsud-torrent[собачка]yandex.ru
cron