Торрент файл
скачать торрент магнет ссылка Добавлен: 05 мар 2018, 21:47
Размер: 7.69 ГБ
Сидеров: 0
Личеров: 0
Статус: (salma3)
Автор

СообщениеДобавлено: 05 мар 2018, 21:47 

Не в сети
Супермодератор
Аватара пользователя
Дата регистрации:
15 фев 2012, 16:44
Возраст: 29
Спасибо: 7400 / 2147
Сообщения: 78350
Год выхода: 1999
Жанр: Ужасы, триллер, драма
Режиссер: Расселл Малкэй

В ролях: Кристофер Ламберт, Лиленд Орсер, Роберт Джой, Барбара Тайсон, Рик Фокс, Дэвид Кроненберг, Джонатан Поттс, Питер МакНейл, Филип Уильямс, Джейн Иствуд

О фильме:
Детектив Джон Прудомм получает задание расследовать серию убийств, которые связаны тем, что маньяк — убийца отрезает у умирающих жертв то ногу, то руку, то голову. Не понимая мотивов этих отвратительных преступлений, полиция бессильно наблюдает, как маньяк собирает человеческое тело из кусков других. Тем временем Прудомм находит убийцу. Его причастность к убийствам очевидна, но не доказана. После суда он с улыбкой выходит на свободу, чтобы продолжить свои кровавые деяния. Но теперь он осторожнее, и поймать его гораздо труднее…



Страна: США, Канада
Продолжительность: 01:47:38
Перевод: Профессиональный [двухголосый], авторский

Файл
Кодек: x.264
Качество: BDRip 1080p
Видео: MPEG-4 AVC, 1920x1040, 8660 Кбит/с, 24.000 кадр/с
Звук:
Аудио #1: Русский ( АС3, 6 ch, 448 Кбит/с, 48.0 KHz) Профессиональный двухголосый [MVO]
Аудио #2: Русский ( АС3, 6 ch, 448 Кбит/с, 48.0 KHz) Авторский (одноголосый закадровый) [Юрий Живов]
Аудио #3: Русский ( АС3, 2ch, 224 Кбит/с, 48.0 KHz) Авторский (одноголосый закадровый) [Сергей Визгунов]
Аудио #4: Английский ( АС3, 6 ch, 448 Кбит/с, 48.0 KHz)
Субтитры: Русские, английские
Источник: Resurrection.1999.1080p.BluRay.x264-GUACAMOLE
General
Unique ID : 170656639047840538565625370635501271967 (0x806345EC2E19ADA2A6DEEC7A81F77B9F)
Complete name : Resurrection.1999.BDRip.1080p.mkv
Format : Matroska
Format version : Version 4 / Version 2
File size : 7.69 GiB
Duration : 1 h 47 min
Overall bit rate : 10.2 Mb/s
Encoded date : UTC 2018-02-27 19:33:28
Writing application : mkvmerge v7.1.0 ('Good Love') 64bit built on Jul 27 2014 13:06:55
Writing library : libebml v1.3.0 + libmatroska v1.4.1
Cover : Yes
Attachments : cover.jpg

Video
ID : 1
Format : AVC
Format/Info : Advanced Video Codec
Format profile : High@L4.1
Format settings : CABAC / 4 Ref Frames
Format settings, CABAC : Yes
Format settings, ReFrames : 4 frames
Codec ID : V_MPEG4/ISO/AVC
Duration : 1 h 47 min
Bit rate : 8 660 kb/s
Width : 1 920 pixels
Height : 1 040 pixels
Display aspect ratio : 1.85:1
Frame rate mode : Constant
Frame rate : 24.000 FPS
Color space : YUV
Chroma subsampling : 4:2:0
Bit depth : 8 bits
Scan type : Progressive
Bits/(Pixel*Frame) : 0.181
Stream size : 6.51 GiB (85%)
Writing library : x264 core 155 r2901 7d0ff22
Encoding settings : cabac=1 / ref=4 / deblock=1:0:0 / analyse=0x3:0x113 / me=umh / subme=8 / psy=1 / psy_rd=1.00:0.00 / mixed_ref=1 / me_range=16 / chroma_me=1 / trellis=2 / 8x8dct=1 / cqm=0 / deadzone=21,11 / fast_pskip=0 / chroma_qp_offset=-2 / threads=12 / lookahead_threads=2 / sliced_threads=0 / nr=0 / decimate=1 / interlaced=0 / bluray_compat=0 / constrained_intra=0 / bframes=3 / b_pyramid=2 / b_adapt=1 / b_bias=0 / direct=1 / weightb=1 / open_gop=0 / weightp=2 / keyint=250 / keyint_min=24 / scenecut=40 / intra_refresh=0 / rc_lookahead=50 / rc=2pass / mbtree=1 / bitrate=8660 / ratetol=1.0 / qcomp=0.60 / qpmin=0 / qpmax=69 / qpstep=4 / cplxblur=20.0 / qblur=0.5 / ip_ratio=1.40 / aq=1:1.00
Language : English
Default : Yes
Forced : No

Audio #1
ID : 2
Format : AC-3
Format/Info : Audio Coding 3
Codec ID : A_AC3
Duration : 1 h 47 min
Bit rate mode : Constant
Bit rate : 448 kb/s
Channel(s) : 6 channels
Channel positions : Front: L C R, Side: L R, LFE
Sampling rate : 48.0 kHz
Frame rate : 31.250 FPS (1536 SPF)
Bit depth : 16 bits
Compression mode : Lossy
Stream size : 345 MiB (4%)
Title : Профессиональный двухголосый [MVO]
Language : Russian
Service kind : Complete Main
Default : Yes
Forced : No

Audio #2
ID : 3
Format : AC-3
Format/Info : Audio Coding 3
Codec ID : A_AC3
Duration : 1 h 47 min
Bit rate mode : Constant
Bit rate : 448 kb/s
Channel(s) : 6 channels
Channel positions : Front: L C R, Side: L R, LFE
Sampling rate : 48.0 kHz
Frame rate : 31.250 FPS (1536 SPF)
Bit depth : 16 bits
Compression mode : Lossy
Stream size : 345 MiB (4%)
Title : Авторский (одноголосый закадровый) [Юрий Живов]
Language : Russian
Service kind : Complete Main
Default : No
Forced : No

Audio #3
ID : 4
Format : AC-3
Format/Info : Audio Coding 3
Codec ID : A_AC3
Duration : 1 h 47 min
Bit rate mode : Constant
Bit rate : 224 kb/s
Channel(s) : 2 channels
Channel positions : Front: L R
Sampling rate : 48.0 kHz
Frame rate : 31.250 FPS (1536 SPF)
Bit depth : 16 bits
Compression mode : Lossy
Stream size : 172 MiB (2%)
Title : Авторский (одноголосый закадровый) [Сергей Визгунов]
Language : Russian
Service kind : Complete Main
Default : No
Forced : No

Audio #4
ID : 5
Format : AC-3
Format/Info : Audio Coding 3
Codec ID : A_AC3
Duration : 1 h 47 min
Bit rate mode : Constant
Bit rate : 448 kb/s
Channel(s) : 6 channels
Channel positions : Front: L C R, Side: L R, LFE
Sampling rate : 48.0 kHz
Frame rate : 31.250 FPS (1536 SPF)
Bit depth : 16 bits
Compression mode : Lossy
Stream size : 345 MiB (4%)
Title : AC3-448
Language : English
Service kind : Complete Main
Default : No
Forced : No

Text #1
ID : 6
Format : UTF-8
Codec ID : S_TEXT/UTF8
Codec ID/Info : UTF-8 Plain Text
Duration : 1 h 42 min
Bit rate : 83 b/s
Count of elements : 1104
Stream size : 62.9 KiB (0%)
Language : Russian
Default : No
Forced : No

Text #2
ID : 7
Format : UTF-8
Codec ID : S_TEXT/UTF8
Codec ID/Info : UTF-8 Plain Text
Duration : 1 h 42 min
Bit rate : 53 b/s
Count of elements : 1119
Stream size : 40.2 KiB (0%)
Language : English
Default : No
Forced : No


_________________
Проголосуй за трекер Открытый торрент трекер - RUS-MEDIA.ORG

Проголосуй Открытый торрент трекер - RUS-MEDIA.ORG


Вернуться к началу
 Профиль Отправить личное сообщение  
 
   Похожие торренты   Автор   Торрент   Размер 
В этой теме нет новых непрочитанных сообщений. Воскрешение / Resurrection [ужасы, триллер, драма, 1999] BDRip 1080p, Dvo

salma3

0 | 1

7.98 ГБ

В этой теме нет новых непрочитанных сообщений. Воскрешение / Resurrection [ужасы, триллер, драма, криминал, детектив. 1999] DVDRip-AVC, Dvo+Avo+Sub

salma3

139 | 14

2.18 ГБ

В этой теме нет новых непрочитанных сообщений. Воскрешение / Resurrection [триллер, драма, криминал, 1999] BDRip 720p, Dvo

salma3

0 | 0

4.7 ГБ

В этой теме нет новых непрочитанных сообщений. Механик: Воскрешение / Mechanic: Resurrection [боевик, триллер, криминал, 2016] BDRip 1080p, Dub+Mvo+Avo+Sub [Лицензия]

salma3

397 | 68

7.74 ГБ

В этой теме нет новых непрочитанных сообщений. Механик: Воскрешение / Mechanic: Resurrection (Боевик, триллер, криминал, 2016) BDRip 1080p | 60 FPS | iTunes

marya111

312 | 59

10.88 ГБ

В этой теме нет новых непрочитанных сообщений. Чужой 4: Воскрешение / Alien: Resurrection [фантастика, боевик, триллер, 1997] BDRip 1080p, Dub+Sub [Special Edition]

salma3

52 | 22

4.37 ГБ

В этой теме нет новых непрочитанных сообщений. Чужой 4: Воскрешение / Alien: Resurrection [фантастика, боевик, триллер, 1997] BDRip-HEVC 1080p, Dub [Special Edition]

salma3

35 | 16

7.35 ГБ


Начать новую тему Ответить на тему  [ 1 сообщение ] 




Для Мосгорсуда, Роскомнадзора и рекламодателей:: mosgorsud-torrent[собачка]yandex.ru
cron