Торрент файл
скачать торрент магнет ссылка Добавлен: 08 мар 2018, 12:18
Размер: 3.6 ГБ
Сидеров: 0
Личеров: 0
Статус: (salma3)
Автор

СообщениеДобавлено: 08 мар 2018, 12:18 

В сети
Супермодератор
Аватара пользователя
Дата регистрации:
15 фев 2012, 16:44
Возраст: 29
Спасибо: 7400 / 2147
Сообщения: 78259
Год выхода: 1992
Жанр: Боевик
Режиссер: Патрик Аллен / Patrik Allen

В ролях: Боло Йенг, Мариам Д'Або, Уильям Забка, Майкл Бернардо, Сайгал Даймант, Мартин Коув, Эдвард Альберт, Джеймс Пэкс

О фильме:
Два друга, ученики мастера Шинго, приехали из Лос-Анджелеса в мексиканский город Тихуана, где проходит подпольный турнир бойцов, в финальной части которого поединки ведутся до смертельного исхода. Драматически складывается не только ход турнира, но и взаимоотношения двух друзей. Однако в самый решающий момент на ринг выходит мастер Шинго...



Страна: США
Продолжительность: 01:35:45
Перевод: Профессиональный (двухголосый закадровый) Рен ТВ

Файл
Кодек: x264
Качество: BDRip 720p [SHTFGHTR_FGHT_TH_DTH_(1992)_[Ger]_REMUX -BLUEBIRD]
Видео: 1280x720, 23.976 fps, ~5085 kbps
Звук: 48 kHz, AC3, 2/0 (L,R) ch, ~192 kbps

General
Unique ID : 7508404428569874174716893134134237802 (0x5A610EB6DB84B53D1BFB71B6734DA6A)
Complete name : F:FILMSСильнейший удар- Бой до смерти_1992_BLU-RAY.720p_[-=DoMiNo=-].mkv
Format : Matroska
Format version : Version 4 / Version 2
File size : 3.60 GiB
Duration : 1 h 35 min
Overall bit rate : 5 385 kb/s
Movie name : Сильнейший удар: Бой до смерти
Deion : Два друга, ученики мастера Шинго, приехали на подпольный турнир бойцов, поединки которого ведутся до смертельного исхода. / Драматически складывается не только ход турнира, но и взаимоотношения друзей. Но на ринг выходит мастер Шинго… / / «For the glory, the money and to the death»
Writing application : XviD4PSP 7.0.445 DAILY
Writing library : Lavf57.71.100
ErrorDetectionType : Per level 1
Attachments : poster.jpg
ACTORS : Боло Йен, Мэриам д’Або,
COUNTRY : США
DATE : 1992
DIRECTOR : Патрик Алан
ENCODING_INFO : BluRay > MKV 720p / H264 > X264 CRF 19.0 Пользовательский / AC3 > COPY Безопасное
GENRE : боевик
HD_VIDEO : 1
Language : und
MEDIA_TYPE : 9
ORIGINAL_TITLE : Shootfighter: Fight to the Death

Video
ID : 1
Format : AVC
Format/Info : Advanced Video Codec
Format profile : High@L4.1
Format settings : CABAC / 8 Ref Frames
Format settings, CABAC : Yes
Format settings, ReFrames : 8 frames
Codec ID : V_MPEG4/ISO/AVC
Duration : 1 h 35 min
Bit rate : 5 085 kb/s
Width : 1 280 pixels
Height : 720 pixels
Display aspect ratio : 16:9
Frame rate mode : Constant
Frame rate : 23.976 (24000/1001) FPS
Color space : YUV
Chroma subsampling : 4:2:0
Bit depth : 8 bits
Scan type : Progressive
Bits/(Pixel*Frame) : 0.230
Stream size : 3.40 GiB (94%)
Title : RIP_BY_-=DoMiNo=-
Writing library : x264 core 155 r2901M 7d0ff22
Encoding settings : cabac=1 / ref=8 / deblock=1:-3:-3 / analyse=0x3:0x133 / me=umh / subme=11 / psy=1 / psy_rd=1.00:0.10 / mixed_ref=1 / me_range=32 / chroma_me=1 / trellis=2 / 8x8dct=1 / cqm=0 / deadzone=21,11 / fast_pskip=1 / chroma_qp_offset=-3 / threads=5 / lookahead_threads=1 / sliced_threads=0 / nr=0 / decimate=1 / interlaced=0 / bluray_compat=0 / constrained_intra=0 / bframes=9 / b_pyramid=2 / b_adapt=2 / b_bias=0 / direct=3 / weightb=1 / open_gop=0 / weightp=2 / keyint=240 / keyint_min=24 / scenecut=40 / intra_refresh=0 / rc_lookahead=60 / rc=crf / mbtree=1 / crf=19.0 / qcomp=0.60 / qpmin=0 / qpmax=69 / qpstep=4 / ip_ratio=1.40 / aq=1:1.00
Default : Yes
Forced : No

Audio
ID : 2
Format : AC-3
Format/Info : Audio Coding 3
Codec ID : A_AC3
Duration : 1 h 35 min
Bit rate mode : Constant
Bit rate : 192 kb/s
Channel(s) : 2 channels
Channel positions : Front: L R
Sampling rate : 48.0 kHz
Frame rate : 31.250 FPS (1536 SPF)
Bit depth : 16 bits
Compression mode : Lossy
Stream size : 131 MiB (4%)
Title : DVO РЕН-ТВ
Language : Russian
Service kind : Complete Main
Default : Yes
Forced : No


_________________
Проголосуй за трекер Открытый торрент трекер - RUS-MEDIA.ORG

Проголосуй Открытый торрент трекер - RUS-MEDIA.ORG


Вернуться к началу
 Профиль Отправить личное сообщение  
 
   Похожие торренты   Автор   Торрент   Размер 
В этой теме нет новых непрочитанных сообщений. Сильнейший удар: Бой до смерти / Shootfighter: Fight to the Death [Боевик, боевые искусства, 1992] BDRip 1080p, Dvo

salma3

82 | 25

7.06 ГБ

В этой теме нет новых непрочитанных сообщений. Сильнейший удар: Бой до смерти / Shootfighter: Fight to the Death [боевик, 1992] DVDRip, Dvo [Рен ТВ]

salma3

64 | 4

1.46 ГБ

В этой теме нет новых непрочитанных сообщений. Сильнейший удар 2 / Shootfighter II [Боевик, 1996] HDRip, Mvo

salma3

0 | 0

698.6 МБ

В этой теме нет новых непрочитанных сообщений. Сильнейший удар 2 / Shootfighter II [боевик, 1996] HDRip-AVC, Mvo

salma3

34 | 21

2.17 ГБ

В этой теме нет новых непрочитанных сообщений. Сильнейший удар 2 / Shootfighter II [боевик, 1996] HDRip, Avo [Гаврилов]

salma3

104 | 50

1.46 ГБ

В этой теме нет новых непрочитанных сообщений. Жажда смерти 5: Лик смерти / Death Wish V: The Face of Death [Боевик, Криминал, Триллер, 1994] BDRip-AVC, mvo

salma3

17 | 4

2.85 ГБ

В этой теме нет новых непрочитанных сообщений. Посланник смерти / Messenger of Death [боевик, триллер, криминал, 1988] BDRip 720p, Mvo

salma3

22 | 27

6.35 ГБ


Начать новую тему Ответить на тему  [ 1 сообщение ] 




Для Мосгорсуда, Роскомнадзора и рекламодателей:: mosgorsud-torrent[собачка]yandex.ru
cron