Торрент файл
скачать торрент магнет ссылка Добавлен: 22 мар 2018, 22:05
Размер: 2.6 ГБ
Сидеров: 0
Личеров: 0
Статус: (salma3)
Автор

СообщениеДобавлено: 22 мар 2018, 22:05 

Не в сети
Супермодератор
Аватара пользователя
Дата регистрации:
15 фев 2012, 16:44
Возраст: 29
Спасибо: 7401 / 2147
Сообщения: 78594
Произведено: Франция
Жанр: комедия
Режиссер: Софи Рейне

В главных ролях: Гюстав Керверн, Камилль Коттен, Элоиз Дуга, Фани Занини, Томас Гай, Франк Гастамбид, Эдит Ле Мерди, Даниэль Коэн, Винсент Клод

О фильме: Дени - любящий, но очень занятый отец. Страдая от безденежья, он перебивается на случайных подработках и растит двух своих дочерей. Однажды он забывает одну из них у выхода из школы. Социальный работник заставляет его пройти обучающий курс для родителей.



Файл
Качество: WEBRip 720p
Видео данные: MKV, 1280x536 (2:40:1), 25.000 fps, 3439 Кбит/с
Аудио данные: AC3, 2 ch, 384 Кбит/с
Перевод: Любительский многоголосый (GreenРай Studio)
Продолжительность: 01:35:29

имеется реклама


General
Unique ID : 244532791910043151343945269466065087599 (0xB7F74D79516B8B51AB3CBF3C48312C6F)
Complete name : D:ГРИНРАЙCigarettes.Et.Chocolat.Chaud.2016.P.WEB-DL.720p.mkv
Format : Matroska
Format version : Version 4 / Version 2
File size : 2.60 GiB
Duration : 1 h 35 min
Overall bit rate : 3 901 kb/s
Encoded date : UTC 2018-03-21 13:35:52
Writing application : mkvmerge v6.5.0 ('Isn't she lovely') built on Oct 20 2013 12:50:05
Writing library : libebml v1.3.0 + libmatroska v1.4.1

Video
ID : 1
Format : AVC
Format/Info : Advanced Video Codec
Format profile : High@L3.1
Format settings : CABAC / 4 Ref Frames
Format settings, CABAC : Yes
Format settings, RefFrames : 4 frames
Codec ID : V_MPEG4/ISO/AVC
Duration : 1 h 35 min
Bit rate : 3 439 kb/s
Width : 1 280 pixels
Height : 536 pixels
Display aspect ratio : 2.40:1
Frame rate mode : Constant
Frame rate : 25.000 FPS
Color space : YUV
Chroma subsampling : 4:2:0
Bit depth : 8 bits
Scan type : Progressive
Bits/(Pixel*Frame) : 0.201
Stream size : 2.29 GiB (88%)
Writing library : x264 core 146 r2538 121396c
Encoding settings : cabac=1 / ref=1 / deblock=1:0:0 / analyse=0x3:0x113 / me=hex / subme=2 / psy=1 / psy_rd=1.00:0.00 / mixed_ref=0 / me_range=16 / chroma_me=1 / trellis=0 / 8x8dct=1 / cqm=0 / deadzone=21,11 / fast_pskip=1 / chroma_qp_offset=0 / threads=9 / lookahead_threads=3 / sliced_threads=0 / nr=0 / decimate=1 / interlaced=0 / bluray_compat=0 / constrained_intra=0 / bframes=3 / b_pyramid=2 / b_adapt=1 / b_bias=0 / direct=1 / weightb=1 / open_gop=0 / weightp=1 / keyint=250 / keyint_min=25 / scenecut=40 / intra_refresh=0 / rc_lookahead=10 / rc=crf / mbtree=1 / crf=14.4 / qcomp=0.60 / qpmin=0 / qpmax=69 / qpstep=4 / ip_ratio=1.40 / aq=1:1.00
Language : English
Default : Yes
Forced : No

Audio
ID : 2
Format : AC-3
Format/Info : Audio Coding 3
Codec ID : A_AC3
Duration : 1 h 35 min
Bit rate mode : Constant
Bit rate : 384 kb/s
Channel(s) : 2 channels
Channel positions : Front: L R
Sampling rate : 48.0 kHz
Frame rate : 31.250 FPS (1536 SPF)
Bit depth : 16 bits
Compression mode : Lossy
Stream size : 262 MiB (10%)
Service kind : Complete Main
Default : Yes
Forced : No


Релиз от:


_________________
Проголосуй за трекер Открытый торрент трекер - RUS-MEDIA.ORG

Проголосуй Открытый торрент трекер - RUS-MEDIA.ORG


Вернуться к началу
 Профиль Отправить личное сообщение  
 
   Похожие торренты   Автор   Торрент   Размер 
В этой теме нет новых непрочитанных сообщений. Сигареты и горячий шоколад / Cigarettes et chocolat chaud [комедия, 2016] WEBRip, Mvo [GreenРай Studio]

salma3

19 | 15

1.37 ГБ

В этой теме нет новых непрочитанных сообщений. Сигареты и горячий шоколад / Cigarettes et chocolat chaud [комедия, 2016] WEBRip 1080p, Mvo [GreenРай Studio]

salma3

3 | 3

2.91 ГБ

В этой теме нет новых непрочитанных сообщений. Любовь и сигареты / Romance & Cigarettes [Мюзикл, мелодрама, комедия, 2005] HDTV 720p, Dub+Sub

salma3

48 | 18

4.71 ГБ

В этой теме нет новых непрочитанных сообщений. Редж / Reg [Драма, 2016] WEBRip 720p, Mvo [GreenРай Studio]

salma3

0 | 0

2.33 ГБ

В этой теме нет новых непрочитанных сообщений. Как есть / As You Are [драма, детектив, 2016] WEBRip 720p, Mvo [GreenРай Studio]

salma3

1 | 2

2.59 ГБ

В этой теме нет новых непрочитанных сообщений. Вилли I / Вилли Первый / Willy 1er [комедия, драма, 2016] WEBRip 720p, Mvo [GreenРай Studio]

salma3

3 | 1

1.26 ГБ

В этой теме нет новых непрочитанных сообщений. Отважный поступок / Saagasam [Боевик, 2016] WEBRip 720p, Mvo [GreenРай Studio]

salma3

0 | 0

2.72 ГБ


Начать новую тему Ответить на тему  [ 1 сообщение ] 




Для Мосгорсуда, Роскомнадзора и рекламодателей:: mosgorsud-torrent[собачка]yandex.ru
cron