Торрент файл
скачать торрент магнет ссылка Добавлен: 01 апр 2018, 11:30
Размер: 7.14 ГБ
Сидеров: 0
Личеров: 0
Статус: (salma3)
Автор

СообщениеДобавлено: 01 апр 2018, 11:30 

Не в сети
Супермодератор
Аватара пользователя
Дата регистрации:
15 фев 2012, 16:44
Возраст: 29
Спасибо: 7434 / 2147
Сообщения: 80293
Год выхода: 1951
Жанр: ужасы, фантастика
Режиссер: Кристиан Найби, Ховард Хоукс

В ролях: Маргарет Шеридан, Кеннет Тоби, Роберт Корнтуэйт, Дуглас Спенсер, Джеймс Р. Янг, Дьюи Мартин, Роберт Николс, Уильям Селф, Эдуард Франц, Сэлли Крейтон

О фильме: В глубине арктических льдов сотрудники военной исследовательской станции находят летающую тарелку, которая вмерзла в лед. Единственное существо, которое было там обнаружено, они неосмотрительно забирают с собой в лагерь. Будучи похожим на человека, оно неуязвимо для всех видов земного оружия и обладает немыслимой силой. Инопланетянин крайне смертоносен, легко ориентируется в лабиринтах коридоров станции, выбирая наилучшие маршруты, при этом нападает только на одиноких людей.



Страна: США
Продолжительность: 01:20:22
Перевод: Профессиональный (двухголосый закадровый)
Субтитры: английский

Файл
Качество: BDRip 720p
Видео: 960x720 (4:3); 11.9 Mb/s; 23.976 fps; 0.720 bpp
Аудио 1: Russian; AC3; 48.0 KHz; 2ch; 192 kbps
Аудио 2: English; FLAC; 48.0 KHz; 2ch; 602 kbps

Format : Matroska
Format version : Version 4 / Version 2
File size : 7.14 GiB
Duration : 1 h 20 min
Overall bit rate mode : Variable
Overall bit rate : 12.7 Mb/s
Encoded date : UTC 2017-06-18 12:46:43
Writing application : mkvmerge v8.3.0 ('Over the Horizon') 64bit
Writing library : libebml v1.3.1 + libmatroska v1.4.2
Attachments : poster.jpg
Encoded/Released by : B@BTN/HDB
Group : ViSUM

Video
ID : 1
Format : AVC
Format/Info : Advanced Video Codec
Format profile : High@L4.1
Format settings, CABAC : Yes
Format settings, ReFrames : 12 frames
Codec ID : V_MPEG4/ISO/AVC
Duration : 1 h 20 min
Bit rate : 11.9 Mb/s
Width : 960 pixels
Height : 720 pixels
Display aspect ratio : 4:3
Frame rate mode : Constant
Frame rate : 23.976 (24000/1001) FPS
Color space : YUV
Chroma subsampling : 4:2:0
Bit depth : 8 bits
Scan type : Progressive
Bits/(Pixel*Frame) : 0.720
Stream size : 6.69 GiB (94%)
Writing library : x264 core 148 r2665+53 6629127 t_mod_Custom [8-bit@all X86_64]
Encoding settings : cabac=1 / ref=12 / deblock=1:-3:-3 / analyse=0x3:0x113 / me=umh / subme=11 / psy=1 / fade_compensate=0.00 / psy_rd=1.10:0.00 / mixed_ref=1 / me_range=24 / chroma_me=1 / trellis=2 / 8x8dct=1 / cqm=0 / deadzone=21,11 / fast_pskip=0 / chroma_qp_offset=-2 / threads=12 / lookahead_threads=1 / sliced_threads=0 / nr=0 / decimate=0 / interlaced=0 / bluray_compat=0 / constrained_intra=0 / fgo=0 / bframes=8 / b_pyramid=2 / b_adapt=1 / b_bias=0 / direct=3 / weightb=1 / open_gop=0 / weightp=2 / keyint=240 / keyint_min=22 / scenecut=40 / intra_refresh=0 / rc_lookahead=100 / rc=crf / mbtree=0 / crf=21.0000 / qcomp=0.65 / qpmin=0:0:0 / qpmax=69:69:69 / qpstep=4 / vbv_maxrate=62500 / vbv_bufsize=78125 / crf_max=0.0 / nal_hrd=none / filler=0 / ip_ratio=1.30 / pb_ratio=1.20 / aq=3:0.55 / aq-sensitivity=10.00 / aq-factor=1.00:1.00:1.00 / aq2=0 / aq3=0
Language : English
Default : Yes
Forced : No

Audio #1
ID : 2
Format : AC-3
Format/Info : Audio Coding 3
Mode extension : CM (complete main)
Format settings, Endianness : Big
Codec ID : A_AC3
Duration : 1 h 20 min
Bit rate mode : Constant
Bit rate : 192 kb/s
Channel(s) : 2 channels
Channel positions : Front: L R
Sampling rate : 48.0 kHz
Frame rate : 31.250 FPS (1536 spf)
Bit depth : 16 bits
Compression mode : Lossy
Stream size : 110 MiB (2%)
Language : Russian
Default : Yes
Forced : No

Audio #2
ID : 3
Format : FLAC
Format/Info : Free Lossless Audio Codec
Codec ID : A_FLAC
Duration : 1 h 20 min
Bit rate mode : Variable
Bit rate : 602 kb/s
Channel(s) : 2 channels
Channel positions : Front: L R
Sampling rate : 48.0 kHz
Frame rate : 41.667 FPS (1152 spf)
Bit depth : 16 bits
Stream size : 346 MiB (5%)
Writing library : libFLAC 1.3.1 (UTC 2014-11-25)
Language : English
Default : No
Forced : No

Text
ID : 4
Format : UTF-8
Codec ID : S_TEXT/UTF8
Codec ID/Info : UTF-8 Plain Text
Duration : 1 h 17 min
Bit rate : 96 b/s
Count of elements : 1115
Stream size : 54.6 KiB (0%)
Language : English
Default : No
Forced : No

Menu
00:00:00.000 : en:00:00:00.000
00:08:01.815 : en:00:08:01.815
00:18:15.261 : en:00:18:15.261
00:29:35.148 : en:00:29:35.148
00:37:29.456 : en:00:37:29.456
00:48:33.077 : en:00:48:33.077
00:57:20.729 : en:00:57:20.729
01:09:03.056 : en:01:09:03.056


_________________
Проголосуй за трекер Открытый торрент трекер - RUS-MEDIA.ORG

Проголосуй Открытый торрент трекер - RUS-MEDIA.ORG


Вернуться к началу
 Профиль Отправить личное сообщение  
 
   Похожие торренты   Автор   Торрент   Размер 
В этой теме нет новых непрочитанных сообщений. Нечто / The Thing [Ужасы, фантастика, детектив, 1982] BDRip 720p, Mvo [Remastered]

salma3

0 | 0

7.9 ГБ

В этой теме нет новых непрочитанных сообщений. Нечто / The Thing [ужасы, фантастика, триллер, 1982] BDRip 1080p, Mvo+Sub [лицензия]

salma3

184 | 5

4.37 ГБ

В этой теме нет новых непрочитанных сообщений. Нечто / The Thing [ужасы, фантастика, триллер, детектив, 2011] BDRip, Avo [Гаврилов]

salma3

134 | 14

1.45 ГБ

В этой теме нет новых непрочитанных сообщений. Нечто / The Thing [ужасы, фантастика, триллер, 2011] HDRip-AVC, Dub

salma3

18 | 6

1.46 ГБ

В этой теме нет новых непрочитанных сообщений. Нечто / The Thing [Ужасы, фантастика, триллер, 2011] BDRemux 1080р, Dub

salma3

7 | 5

35.32 ГБ

В этой теме нет новых непрочитанных сообщений. Возвращение болотной твари / The Return of Swamp Thing [ужасы, фантастика, боевик, 1989] BDRip-AVC, Avo

salma3

32 | 11

745.74 МБ

В этой теме нет новых непрочитанных сообщений. Возвращение болотной твари / The Return of Swamp Thing [ужасы, фантастика, боевик, 1989] BDRip 1080р, Avo

salma3

6 | 2

8.62 ГБ


Начать новую тему Ответить на тему  [ 1 сообщение ] 




Для Мосгорсуда, Роскомнадзора и рекламодателей:: mosgorsud-torrent[собачка]yandex.ru
cron