Торрент файл
скачать торрент магнет ссылка Добавлен: 13 апр 2018, 11:13
Размер: 3.35 ГБ
Сидеров: 0
Личеров: 0
Статус: (salma3)
Автор

СообщениеДобавлено: 13 апр 2018, 11:13 

Не в сети
Супермодератор
Аватара пользователя
Дата регистрации:
15 фев 2012, 16:44
Возраст: 29
Спасибо: 7400 / 2147
Сообщения: 78376
Год выхода: 2017
Жанр: Tриллер, драма, детектив
Режиссер: Линн Рэмси

В ролях: Хоакин Феникс, Данте Перейра-Олсон, Винисиус Дамассено, Нео Рэндолл, Джудит Анна Робертс, Фрэнк Пандо, Джон Доумен, Эдвард Лэтэм, Алекс Манетт, Клер Сюй

О фильме:
У сурового Джо непростая судьба. Он никого не боится, лишь вспышки воспоминаний заставляют его вздрагивать. Безжалостный герой-одиночка, идущий напролом ради спасения слабых. Для Нины, юной дочери сенатора, Джо - единственная надежда. И даже самые изощрённые и жестокие силы не должны помешать ему вызволить её из ада, в который она попала.



Страна: Великобритания, Франция, США
Продолжительность: 01:29:23
Перевод: Любительский одноголосый закадровый Cmert
Субтитры: Английские

Файл
Качество видео: WEB-DL 1080p
Видео: AVC/H.264, 1920x796, ~4487 Kbps
Аудио #1: AC-3, 2 ch, 384 Kbps | Русский
Аудио #2: AC-3, 6 ch, 384 Kbps | Английский



Общее
Уникальный идентификатор : 214700963795087988739420284260963327245 (0xA185E6CA6B624CC7876BF75F55941D0D)
Полное имя : E:NNMТебя никогда здесь не былоYou Were Never Really Here 2017 1080p-LQ NNM-Club.mkv
Формат : Matroska
Версия формата : Version 4 / Version 2
Размер файла : 3,35 Гбайт
Продолжительность : 1 ч. 29 м.
Общий поток : 5361 Кбит/сек
Дата кодирования : UTC 2018-04-11 19:22:41
Программа кодирования : mkvmerge v6.9.1 ('Blue Panther') 32bit built on Apr 18 2014 18:15:44
Библиотека кодирования : libebml v1.3.0 + libmatroska v1.4.1

Видео
Идентификатор : 1
Формат : AVC
Формат/Информация : Advanced Video Codec
Профиль формата : High@L4
Настройки формата : CABAC / 5 Ref Frames
Параметр CABAC формата : Да
Параметр RefFrames формата : 5 кадров
Идентификатор кодека : V_MPEG4/ISO/AVC
Продолжительность : 1 ч. 29 м.
Битрейт : 4487 Кбит/сек
Ширина : 1920 пикселей
Высота : 796 пикселей
Соотношение сторон : 2,40:1
Режим частоты кадров : Постоянный
Частота кадров : 24,000 кадра/сек
Цветовое пространство : YUV
Субдискретизация насыщенности : 4:2:0
Битовая глубина : 8 бит
Тип развёртки : Прогрессивная
Бит/(Пиксели*Кадры) : 0.122
Размер потока : 2,80 Гбайт (84%)
Язык : English
Default : Да
Forced : Нет
Цветовой диапазон : Limited
Основные цвета : BT.709
Характеристики трансфера : BT.709
Коэффициенты матрицы : BT.709

Аудио #1
Идентификатор : 2
Формат : AC-3
Формат/Информация : Audio Coding 3
Идентификатор кодека : A_AC3
Продолжительность : 1 ч. 29 м.
Вид битрейта : Постоянный
Битрейт : 384 Кбит/сек
Каналы : 2 канала
Расположение каналов : Front: L R
Частота : 48,0 КГц
Частота кадров : 31,250 кадров/сек (1536 SPF)
Битовая глубина : 16 бит
Метод сжатия : С потерями
Задержка видео : -42 мс.
Размер потока : 246 Мбайт (7%)
Заголовок : VO - Cmert
Язык : Russian
ServiceKind : Complete Main
Default : Да
Forced : Нет

Аудио #2
Идентификатор : 3
Формат : AC-3
Формат/Информация : Audio Coding 3
Идентификатор кодека : A_AC3
Продолжительность : 1 ч. 29 м.
Вид битрейта : Постоянный
Битрейт : 384 Кбит/сек
Каналы : 6 каналов
Расположение каналов : Front: L C R, Side: L R, LFE
Частота : 48,0 КГц
Частота кадров : 31,250 кадров/сек (1536 SPF)
Битовая глубина : 16 бит
Метод сжатия : С потерями
Задержка видео : -42 мс.
Размер потока : 246 Мбайт (7%)
Язык : English
ServiceKind : Complete Main
Default : Нет
Forced : Нет

Текст
Идентификатор : 4
Формат : UTF-8
Идентификатор кодека : S_TEXT/UTF8
Идентификатор кодека/Информация : UTF-8 Plain Text
Язык : English
Default : Нет
Forced : Нет

Меню
00:00:00.000 : en:1
00:13:16.000 : en:2
00:19:43.000 : en:3
00:31:56.000 : en:4
00:42:48.000 : en:5
00:53:23.000 : en:6
01:06:49.000 : en:7
01:18:07.000 : en:8
01:21:57.000 : en:9


_________________
Проголосуй за трекер Открытый торрент трекер - RUS-MEDIA.ORG

Проголосуй Открытый торрент трекер - RUS-MEDIA.ORG


Вернуться к началу
 Профиль Отправить личное сообщение  
 
   Похожие торренты   Автор   Торрент   Размер 
В этой теме нет новых непрочитанных сообщений. Тебя никогда здесь не было / You Were Never Really Here [Tриллер, драма, детектив, 2017] WEBRip, Avo

salma3

0 | 0

1.18 ГБ

В этой теме нет новых непрочитанных сообщений. Тебя никогда здесь не было / You Were Never Really Here [триллер, драма, детектив, 2017] BDRip 1080p, Mvo

salma3

111 | 119

6.8 ГБ

В этой теме нет новых непрочитанных сообщений. Тебя никогда здесь не было / You Were Never Really Here [триллер, драма, детектив, 2017] BDRemux 1080p, Mvo [iTunes]

salma3

6 | 6

17.95 ГБ

В этой теме нет новых непрочитанных сообщений. Тебя никогда здесь не было / You Were Never Really Here [триллер, драма, детектив, 2017] HDRip, Mvo

salma3

551 | 157

1.41 ГБ

В этой теме нет новых непрочитанных сообщений. Тебя никогда здесь не было / You Were Never Really Here [триллер, драма, детектив, 2017] BDRip, Mvo [iTunes]

salma3

354 | 69

1.42 ГБ

В этой теме нет новых непрочитанных сообщений. Тебя никогда здесь не было / You Were Never Really Here [триллер, драма, детектив, 2017] BDRip, Mvo [лицензия]

salma3

11 | 1

1.46 ГБ

В этой теме нет новых непрочитанных сообщений. Тебя никогда здесь не было / You Were Never Really Here [триллер, драма, детектив, 2017] BDRip 720p, Mvo

salma3

232 | 91

4.6 ГБ


Начать новую тему Ответить на тему  [ 1 сообщение ] 




Для Мосгорсуда, Роскомнадзора и рекламодателей:: mosgorsud-torrent[собачка]yandex.ru
cron