Торрент файл
скачать торрент магнет ссылка Добавлен: 19 апр 2018, 16:31
Размер: 24.38 ГБ
Сидеров: 4
Личеров: 10
Статус: (salma3)
Автор

СообщениеДобавлено: 19 апр 2018, 16:31 

Не в сети
Супермодератор
Аватара пользователя
Дата регистрации:
15 фев 2012, 16:44
Возраст: 29
Спасибо: 7400 / 2147
Сообщения: 78216
Год выпуска: 1990
Жанр: Триллер, криминал, детектив
Режиссёр: Фред Скепси / Fred Schepisi

В ролях: Шон Коннери, Мишель Пфайффер, Рой Шайдер, Джеймс Фокс, Джон Махони, Майкл Кичен, Дж.Т. Уолш, Кен Расселл, Дэвид Трелфолл, Клаус Мария Брандауэр, Мак МакДональд, Николас Вудесон, Мартин Клунес, Иэн МакНис, Колин Стинтон, Денис Хоторн, Джордж Рот, Петер Маринер, Эллен Херст, Петер Кнапффер, Николай Пастухов, Джейсон Салки

О фильме: Привлекательная русская женщина Катя - литературный редактор. Пытаясь переправить британскому издателю БарлиБлэйру рукопись известного советского ученого, Катя невольно втягивает их обоих в мир международного шпионажа. Рукопись, содержания которой достаточно для нарушения мирового баланса, перехвачена западной разведкой. Блэйра вербуют в Советский Союз для добычи новой информации о таинственной рукописи. Но когда Блэйр знакомится с Катей, ему приходится выбирать между возложенной на него миссией и страстью к женщине, для которой преданность собственной стране незыблема, как и для самого Блэйра.



Выпущено: США, Metro-Goldwyn-Mayer (MGM), Pathé Entertainment, Star Partners III Ltd
Перевод: Профессиональный многоголосый, профессиональный двухголосый
Продолжительность: 02:03:07

Файл
Качество: BDRemux 1080р
Видео: MPEG-4 AVC, 25708 Кбит/с, 1920x1080, 23.976 Кадр/с
Аудио 1: Russian / AC3 / 2.0 / 48 kHz / 192 kbps | DVO, НТВ+
Аудио 2: Russian / AC3 / 2.0 / 48 kHz / 192 kbps | MVO, НТВ+ (для НТВ)
Аудио 3: Russian / AC3 / 2.0 / 48 kHz / 192 kbps | MVO, Союзмультфильм
Аудио 4: English / DTS-HD Ma / 2.0 / 48 kHz / 2058 kbps / 24-bit (DTS Core: 2.0 / 48 kHz / 1509 kbps / 24-bit) | Оригинал
Субтитры: Английские
Навигация по главам: Есть

Format : Matroska
Format version : Version 2
File size : 24.4 GiB
Duration : 2 h 3 min
Overall bit rate mode : Variable
Overall bit rate : 28.4 Mb/s
Movie name : Russia.House.1990.1080p.Bluray.AVC.Remux
Encoded date : UTC 2012-07-12 20:13:12
Writing application : mkvmerge v4.9.1 ('Ich will') сборка от Jul 11 2011 23:53:15
Writing library : libebml v1.2.1 + libmatroska v1.1.1

Video
ID : 1
Format : AVC
Format/Info : Advanced Video Codec
Format profile : High@L4.1
Format settings, CABAC : Yes
Format settings, ReFrames : 3 frames
Format settings, GOP : M=3, N=12
Codec ID : V_MPEG4/ISO/AVC
Duration : 2 h 3 min
Bit rate mode : Variable
Maximum bit rate : 35.0 Mb/s
Width : 1 920 pixels
Height : 1 080 pixels
Display aspect ratio : 16:9
Frame rate mode : Constant
Frame rate : 23.976 (24000/1001) FPS
Standard : NTSC
Color space : YUV
Chroma subsampling : 4:2:0
Bit depth : 8 bits
Scan type : Progressive
Title : uralmix
Default : Yes
Forced : No
Color range : Limited
Color primaries : BT.709
Transfer characteristics : BT.709
Matrix coefficients : BT.709

Audio #1
ID : 2
Format : AC-3
Format/Info : Audio Coding 3
Mode extension : CM (complete main)
Format settings, Endianness : Big
Codec ID : A_AC3
Duration : 2 h 3 min
Bit rate mode : Constant
Bit rate : 192 kb/s
Channel(s) : 2 channels
Channel positions : Front: L R
Sampling rate : 48.0 kHz
Frame rate : 31.250 FPS (1536 spf)
Bit depth : 16 bits
Compression mode : Lossy
Stream size : 169 MiB (1%)
Title : НТВ+
Language : Russian
Default : Yes
Forced : No

Audio #2
ID : 3
Format : AC-3
Format/Info : Audio Coding 3
Mode extension : CM (complete main)
Format settings, Endianness : Big
Codec ID : A_AC3
Duration : 2 h 3 min
Bit rate mode : Constant
Bit rate : 192 kb/s
Channel(s) : 2 channels
Channel positions : Front: L R
Sampling rate : 48.0 kHz
Frame rate : 31.250 FPS (1536 spf)
Bit depth : 16 bits
Compression mode : Lossy
Stream size : 169 MiB (1%)
Title : НТВ+ по заказу НТВ
Language : Russian
Default : No
Forced : No

Audio #3
ID : 4
Format : AC-3
Format/Info : Audio Coding 3
Mode extension : CM (complete main)
Format settings, Endianness : Big
Codec ID : A_AC3
Duration : 2 h 3 min
Bit rate mode : Constant
Bit rate : 192 kb/s
Channel(s) : 2 channels
Channel positions : Front: L R
Sampling rate : 48.0 kHz
Frame rate : 31.250 FPS (1536 spf)
Bit depth : 16 bits
Compression mode : Lossy
Stream size : 169 MiB (1%)
Title : Союзмультфильм, 1991 год
Language : Russian
Default : No
Forced : No

Audio #4
ID : 5
Format : DTS
Format/Info : Digital Theater Systems
Format profile : MA / Core
Mode : 16
Format settings, Endianness : Big
Codec ID : A_DTS
Duration : 2 h 3 min
Bit rate mode : Variable / Constant
Bit rate : Unknown / 1 509 kb/s
Channel(s) : 2 channels
Channel positions : Front: L R
Sampling rate : 48.0 kHz
Frame rate : 93.750 FPS (512 spf)
Bit depth : 24 bits
Compression mode : Lossless / Lossy
Language : English
Default : No
Forced : No

Text
ID : 6
Format : UTF-8
Codec ID : S_TEXT/UTF8
Codec ID/Info : UTF-8 Plain Text
Language : English
Default : No
Forced : No

Menu
00:00:00.000 : en:Katya
00:17:16.535 : en:Dante
00:33:31.509 : en:Savelyev
00:53:30.374 : en:Leningrad
01:05:21.835 : en:Interrogation
01:19:02.655 : en:Matvey
01:35:08.536 : en:Shopping List
01:48:36.719 : en:Statement



_________________
Проголосуй за трекер Открытый торрент трекер - RUS-MEDIA.ORG

Проголосуй Открытый торрент трекер - RUS-MEDIA.ORG


Вернуться к началу
 Профиль Отправить личное сообщение  
 
   Похожие торренты   Автор   Торрент   Размер 
В этой теме нет новых непрочитанных сообщений. Русский отдел / The Russia House [триллер, драма, мелодрама, 1990] BDRip, Mvo

salma3

22 | 8

2.02 ГБ

В этой теме нет новых непрочитанных сообщений. Презумпция невиновности / Presumed Innocent [Триллер, драма, криминал, детектив, 1990] BDRemux 1080p, Dub

salma3

25 | 9

17.48 ГБ

В этой теме нет новых непрочитанных сообщений. Первая сила / The First Power [ужасы, триллер, криминал, 1990] BDRemux 1080p, Dvo+Avo+Sub

salma3

32 | 3

15.4 ГБ

В этой теме нет новых непрочитанных сообщений. Внутреннее расследование / Internal Affairs [триллер, драма, криминал, 1990] BDRemux 1080p, Mvo

salma3

0 | 1

19.16 ГБ

В этой теме нет новых непрочитанных сообщений. Отряд «Дельта» 2 / Delta Force 2: The Colombian Connection [боевик, триллер, криминал, 1990] BDRemux 1080p, Mvo+Avo

salma3

0 | 0

15.92 ГБ

В этой теме нет новых непрочитанных сообщений. Скрюченный домишко / Crooked House [Драма, криминал, детектив, 2017] BDRemux 1080p, Mvo

salma3

27 | 9

22 ГБ

В этой теме нет новых непрочитанных сообщений. 007: Из России с любовью / From Russia with Love [боевик, триллер, приключения, 1963] BDRemux 1080p, Dub

salma3

5 | 8

34.51 ГБ


Начать новую тему Ответить на тему  [ 1 сообщение ] 




Для Мосгорсуда, Роскомнадзора и рекламодателей:: mosgorsud-torrent[собачка]yandex.ru
cron