Торрент файл
скачать торрент магнет ссылка Добавлен: 23 апр 2018, 21:05
Размер: 2.89 ГБ
Сидеров: 204
Личеров: 39
Статус: (salma3)
Автор

СообщениеДобавлено: 23 апр 2018, 21:05 

Не в сети
Супермодератор
Аватара пользователя
Дата регистрации:
15 фев 2012, 16:44
Возраст: 29
Спасибо: 7428 / 2147
Сообщения: 80047
Год выхода: 2018
Жанр: Драма, криминал
Режиссер: Фатих Акин

В ролях: Дайан Крюгер, Денис Москитто, Нуман Аджар, Самия Мюриэль Шанкрен, Йоханнес Криш, Ульрих Тукур, Ульрих Брандхофф, Ханна Хильсдорф, Джем Акын, Йула Будали и другие

О фильме:
Идеальная жизнь Кати в один миг превратилась в руины — в результате террористического акта погибли её муж и сын. Друзья и семья пытаются остановить её слезы, помочь найти силы жить одной. В безумном поиске виновников бессмысленного убийства Катя не находит справедливости. И после долгой скорби, в абсолютном бессилии она идёт на радикальные меры.



Страна: Великобритания
Продолжительность: 01:46:39
Перевод: Любительский (двухголосый закадровый) | HiWay Grope

Файл
Качество: WEBRip 720p
Видео: 1280x536, 23.976 fps, ~3417 kbps, 0.208 bit/pixel
Аудио rus: AC3, 48 kHz, 6 ch, 384 Kbps

Семпл

General
Unique ID : 241338862117623722396707510933984044824 (0xB5902C93C30AAD2BE1FBA98F4BC2E718)
Complete name : E:In.The.Fade.2018.720p.WEBRip.HiWayGropeIn.The.Fade.2018.720p.WEBRip.HiWayGrope.mkv
Format : Matroska
Format version : Version 4 / Version 2
File size : 2.89 GiB
Duration : 1h 46mn
Overall bit rate : 3 879 Kbps
Encoded date : UTC 2018-04-23 15:14:15
Writing application : mkvmerge v21.0.0 ('Tardigrades Will Inherit The Earth') 64-bit
Writing library : libebml v1.3.5 + libmatroska v1.4.8

Video
ID : 1
Format : AVC
Format/Info : Advanced Video Codec
Format profile : Main@L4.1
Format settings, CABAC : Yes
Format settings, ReFrames : 4 frames
Codec ID : V_MPEG4/ISO/AVC
Duration : 1h 46mn
Bit rate : 3 417 Kbps
Width : 1 280 pixels
Height : 536 pixels
Display aspect ratio : 2.40:1
Frame rate mode : Constant
Frame rate : 23.976 (24000/1001) fps
Standard : NTSC
Color space : YUV
Chroma subsampling : 4:2:0
Bit depth : 8 bits
Scan type : Progressive
Bits/(Pixel*Frame) : 0.208
Stream size : 2.55 GiB (88%)
Language : English
Default : Yes
Forced : No
Color range : Limited
Color primaries : BT.601 NTSC
Transfer characteristics : BT.601
Matrix coefficients : BT.601

Audio
ID : 2
Format : AC-3
Format/Info : Audio Coding 3
Mode extension : CM (complete main)
Format settings, Endianness : Big
Codec ID : A_AC3
Duration : 1h 46mn
Bit rate mode : Constant
Bit rate : 384 Kbps
Channel(s) : 6 channels
Channel positions : Front: L C R, Side: L R, LFE
Sampling rate : 48.0 KHz
Frame rate : 31.250 fps (1536 spf)
Compression mode : Lossy
Stream size : 293 MiB (10%)
Title : rus
Language : Russian
Default : Yes
Forced : No


Реклама: присутствует


_________________
Проголосуй за трекер Открытый торрент трекер - RUS-MEDIA.ORG

Проголосуй Открытый торрент трекер - RUS-MEDIA.ORG


Вернуться к началу
 Профиль Отправить личное сообщение  
 
   Похожие торренты   Автор   Торрент   Размер 
В этой теме нет новых непрочитанных сообщений. На пределе / In The Fade / Aus dem Nichts [Драма, криминал, 2018] WEBRip, Dvo

salma3

243 | 73

1.41 ГБ

В этой теме нет новых непрочитанных сообщений. На пределе / In the Fade / Aus dem Nichts [Драма, криминал, 2017] BDRip, Dvo

salma3

272 | 35

1.41 ГБ

В этой теме нет новых непрочитанных сообщений. На пределе / In the Fade / Aus dem Nichts [Драма, криминал, 2017] BDRip, Mvo [iTunes]

salma3

45 | 14

745.41 МБ

В этой теме нет новых непрочитанных сообщений. Порядочный человек / Nichts passiert [драма, криминал, 2015] DVDRip, Mvo

salma3

49 | 15

699.88 МБ

В этой теме нет новых непрочитанных сообщений. Порядочный человек / Nichts passiert [драма, криминал, 2015] DVDRip, Mvo

salma3

105 | 28

1.37 ГБ

В этой теме нет новых непрочитанных сообщений. Лед / Ice [S02] [Драма, криминал, 2018] WEBRip 720p, Mvo [OmskBird]

salma3

0 | 0

11.19 ГБ

В этой теме нет новых непрочитанных сообщений. Тягач 22 / 22 Chaser [Драма, криминал, 2018] WEBRip 720p, Dvo

salma3

0 | 0

2.91 ГБ


Начать новую тему Ответить на тему  [ 1 сообщение ] 




Для Мосгорсуда, Роскомнадзора и рекламодателей:: mosgorsud-torrent[собачка]yandex.ru
cron