Торрент файл
скачать торрент магнет ссылка Добавлен: 26 апр 2018, 11:22
Размер: 4.37 ГБ
Сидеров: 4
Личеров: 1
Статус: (salma3)
Автор

СообщениеДобавлено: 26 апр 2018, 11:22 

В сети
Супермодератор
Аватара пользователя
Дата регистрации:
15 фев 2012, 16:44
Возраст: 29
Спасибо: 7401 / 2147
Сообщения: 78402
Год выпуска: 1999
Жанр: триллер, драма
Режиссер: Марк Пеллингтон

В ролях: Джефф Бриджес, Тим Роббинс, Джоан Кьюсак, Хоуп Дэвис, Роберт Госсетт, Мейсон Гэмбл, Спенсер Трит Кларк, Стенли Андерсон, Вивиан Вайвз, Ли Стрингер

Описание:
Интеллигентный профессор Майкл Фарадей, в одиночку воспитывающий своего сына после трагической гибели жены во время рейда ФБР, и не представляет, какой крутой поворот вскоре совершит его судьба. Знакомство с милой соседской семьей помогает Майклу оправиться от потрясения и вернуться к нормальной жизни. Однако чем дольше Майкл общается с новыми друзьями, тем больше необъяснимых сомнений и тревог появляется в его душе. Поймав несколько раз соседа на мелкой лжи, Майкл решает выяснить все об этом человеке. И его открытия оказываются гораздо страшнее, чем он мог себе вообразить.



Страна: США
Продолжительность: 01:57:44
Перевод: Профессиональный (многоголосый, закадровый)

Формат: BDRip 720p
Видео: 1280x532p (2.40:1), 23.976 fps, AVC MPEG-4 (H.264), ~4039 kbps, 0.247 bit/pixel
Аудио #1: Русский: 48 kHz, AC3 Dolby Digital, 2 ch, ~192 kbps [Профессиональный (полное дублирование)]
Аудио #2: Русский: 48 kHz, AC3 Dolby Digital, 6 ch, ~448 kbps [Профессиональный (многоголосый, закадровый) ]
Аудио #3: Английский: 48 kHz, AC3 Dolby Digital, 6 ch, ~640 kbps [Оригинал]
Субтитры: Русские, английские

Формат : Matroska
Версия формата : Version 4 / Version 2
Размер файла : 4,37 Гбайт
Продолжительность : 1 ч. 57 м.
Общий поток : 5323 Кбит/сек
Название фильма : Doroga.na.Arlington.1999.BDRip720p_[New-team]_by_AVP_Studio
Дата кодирования : UTC 2014-07-11 18:29:38
Программа кодирования : mkvmerge v6.9.1 ('Blue Panther') 64bit built on Apr 18 2014 18:23:38
Библиотека кодирования : libebml v1.3.0 + libmatroska v1.4.1

Видео
Идентификатор : 1
Формат : AVC
Формат/Информация : Advanced Video Codec
Профиль формата :
Параметр CABAC формата : Да
Параметр ReFrames формата : 6 кадров
Идентификатор кодека : V_MPEG4/ISO/AVC
Продолжительность : 1 ч. 57 м.
Битрейт : 4039 Кбит/сек
Ширина : 1280 пикселей
Высота : 532 пикселя
Соотношение сторон : 2,40:1
Режим частоты кадров : Постоянный
Частота кадров : 23,976 кадра/сек
Цветовое пространство : YUV
Субдискретизация насыщенности : 4:2:0
Битовая глубина : 8 бит
Тип развёртки : Прогрессивная
Бит/(Пиксели*Кадры) : 0.247
Размер потока : 3,23 Гбайт (74%)
Заголовок : Источник BDRemux
Библиотека кодирования : x264 core 138 r2356 a1d3d17
Настройки программы : cabac=1 / ref=6 / deblock=1:-3:-3 / analyse=0x3:0x113 / me=umh / subme=10 / psy=1 / psy_rd=1.00:0.05 / mixed_ref=1 / me_range=32 / chroma_me=1 / trellis=2 / 8x8dct=1 / cqm=0 / deadzone=21,11 / fast_pskip=0 / chroma_qp_offset=-3 / threads=6 / lookahead_threads=1 / sliced_threads=0 / nr=0 / decimate=0 / interlaced=0 / bluray_compat=0 / constrained_intra=0 / bframes=8 / b_pyramid=2 / b_adapt=2 / b_bias=0 / direct=3 / weightb=1 / open_gop=0 / weightp=2 / keyint=240 / keyint_min=24 / scenecut=40 / intra_refresh=0 / rc_lookahead=40 / rc=2pass / mbtree=1 / bitrate=4039 / ratetol=1.0 / qcomp=0.60 / qpmin=10 / qpmax=51 / qpstep=4 / cplxblur=20.0 / qblur=0.5 / vbv_maxrate=50000 / vbv_bufsize=50000 / nal_hrd=none / ip_ratio=1.40 / aq=1:0.80
Язык : English
Default : Да
Forced : Нет

Аудио #1
Идентификатор : 2
Формат : AC-3
Формат/Информация : Audio Coding 3
Расширение режима : CM (complete main)
Параметр Endianness формата : Big
Идентификатор кодека : A_AC3
Продолжительность : 1 ч. 57 м.
Вид битрейта : Постоянный
Битрейт : 192 Кбит/сек
Каналы : 2 канала
Расположение каналов : Front: L R
Частота : 48,0 КГц
Битовая глубина : 16 бит
Метод сжатия : С потерями
Размер потока : 161 Мбайт (4%)
Заголовок : Источник BDRemux Dolby Digital 2,0 192 kbps DUB
Язык : Russian
Default : Да
Forced : Нет

Аудио #2
Идентификатор : 3
Формат : AC-3
Формат/Информация : Audio Coding 3
Расширение режима : CM (complete main)
Параметр Endianness формата : Big
Идентификатор кодека : A_AC3
Продолжительность : 1 ч. 57 м.
Вид битрейта : Постоянный
Битрейт : 448 Кбит/сек
Каналы : 6 каналов
Расположение каналов : Front: L C R, Side: L R, LFE
Частота : 48,0 КГц
Битовая глубина : 16 бит
Метод сжатия : С потерями
Размер потока : 377 Мбайт (8%)
Заголовок : Источник BDRemux Dolby Digital 5,1 448 kbps
Язык : Russian
Default : Нет
Forced : Нет

Аудио #3
Идентификатор : 4
Формат : AC-3
Формат/Информация : Audio Coding 3
Расширение режима : CM (complete main)
Параметр Endianness формата : Big
Идентификатор кодека : A_AC3
Продолжительность : 1 ч. 57 м.
Вид битрейта : Постоянный
Битрейт : 640 Кбит/сек
Каналы : 6 каналов
Расположение каналов : Front: L C R, Side: L R, LFE
Частота : 48,0 КГц
Битовая глубина : 16 бит
Метод сжатия : С потерями
Размер потока : 538 Мбайт (12%)
Заголовок : Источник BDRemux Dolby Digital 5,1 640 kbps
Язык : English
Default : Нет
Forced : Нет

Текст #1
Идентификатор : 5
Формат : UTF-8
Идентификатор кодека : S_TEXT/UTF8
Идентификатор кодека/Информация : UTF-8 Plain Text
Заголовок : Источник BDRemux SoftSub (srt)
Язык : Russian
Default : Нет
Forced : Нет

Текст #2
Идентификатор : 6
Формат : UTF-8
Идентификатор кодека : S_TEXT/UTF8
Идентификатор кодека/Информация : UTF-8 Plain Text
Заголовок : Источник BDRemux SoftSub (srt)
Язык : English
Default : Нет
Forced : Нет

Меню
00:00:00.000 : ru:Эпизод 01
00:05:15.565 : ru:Эпизод 02
00:08:17.455 : ru:Эпизод 03
00:15:30.679 : ru:Эпизод 04
00:21:01.426 : ru:Эпизод 05
00:31:19.752 : ru:Эпизод 06
00:38:31.142 : ru:Эпизод 07
00:41:35.993 : ru:Эпизод 08
00:48:57.601 : ru:Эпизод 09
00:56:51.908 : ru:Эпизод 10
01:07:51.025 : ru:Эпизод 11
01:14:00.727 : ru:Эпизод 12
01:19:01.153 : ru:Эпизод 13
01:34:51.102 : ru:Эпизод 14
01:43:20.986 : ru:Эпизод 15
01:44:12.663 : ru:Эпизод 16
01:52:05.885 : ru:Эпизод 17





_________________
Проголосуй за трекер Открытый торрент трекер - RUS-MEDIA.ORG

Проголосуй Открытый торрент трекер - RUS-MEDIA.ORG


Вернуться к началу
 Профиль Отправить личное сообщение  
 
   Похожие торренты   Автор   Торрент   Размер 
В этой теме нет новых непрочитанных сообщений. Дорога на Арлингтон / Arlington Road [триллер, драма, 1999] HDRip, Mvo

salma3

12 | 5

1.46 ГБ

В этой теме нет новых непрочитанных сообщений. Дорога / The Road [драма, приключения, 2009] BDRip, Mvo

salma3

44 | 14

2.18 ГБ

В этой теме нет новых непрочитанных сообщений. Дорога домой / The Inland Road [Драма, 2017] WEBRip 720p, Dvo

salma3

0 | 0

1.76 ГБ

В этой теме нет новых непрочитанных сообщений. Дорога без возврата / Road of No Return [боевик, драма, 2009] BDRip-AVC, Mvo

salma3

50 | 8

1.46 ГБ

В этой теме нет новых непрочитанных сообщений. Дорога на Вэлвилл / The Road to Wellville [Драма, комедия, 1994] BDRip 1080p, Mvo

salma3

112 | 23

9.25 ГБ

В этой теме нет новых непрочитанных сообщений. Дорога Черной Смолы / Black Tar Road [триллер, драма, криминал, биография, 2016] WEBRip, Mvo

salma3

606 | 155

1.37 ГБ

В этой теме нет новых непрочитанных сообщений. Темная дорога / Black Road [фантастика, триллер, 2016] HDRip, Avo

salma3

75 | 2

1.24 ГБ


Начать новую тему Ответить на тему  [ 1 сообщение ] 




Для Мосгорсуда, Роскомнадзора и рекламодателей:: mosgorsud-torrent[собачка]yandex.ru
cron