Торрент файл
скачать торрент магнет ссылка Добавлен: 08 май 2018, 20:58
Размер: 3.06 ГБ
Сидеров: 0
Личеров: 1
Статус: (salma3)
Автор

СообщениеДобавлено: 08 май 2018, 20:58 

Не в сети
Супермодератор
Аватара пользователя
Дата регистрации:
15 фев 2012, 16:44
Возраст: 29
Спасибо: 7400 / 2147
Сообщения: 78391
Год выхода: 2006
Жанр: комедия, приключения, семейный
Режиссер: Уил Шрайнер

В ролях: Люк Уилсон, Логан Лерман, Бри Ларсон, Тим Блейк Нельсон, Нил Флинн, Кларк Грегг, Кирстен Уоррен, Джессика Коффил, Дин Коллинз, Роберт Вагнер, Эрик Филлипс, Джимми Баффетт, Джон Арчи, Роберт Доннер

О фильме: Школьник Рой Эберхардт переезжает вместе с семьёй из Монтаны во Флориду. Там он вместе с двумя новыми друзьями обнаружив угрозу местной популяции редких сов, бросает вызов жадным бизнессменам, продажным политикам и бездарным полицейским. Полные решимости защитить свою окружающую среду от губительного воздействия, друзья готовы на всё, чтобы не дать взрослым совершить большую ошибку.



Страна: США
Продолжительность: 01:30:48
Перевод: Профессиональный (многоголосый закадровый) R5

Файл
Кодек: H264
Качество: WEB-DL 720p
Видео: MPEG4 AVC, 3 892 kb/s, 1280x692, 23.976fps
Звук:
Аудио 1: Русский, AC3, 6 ch, 48 kHz, 448 kbps
Аудио 2: Английский, AC3, 6 ch, 48 kHz, 384 kbps
Субтитры: русские (R5), английские

General
Unique ID : 189389526770786938702034203066030988553 (0x8E7B189871CB92C4969CC0443D799D09)
Complete name : d:DownloadsКрик совы.2006.WEB-DL.720p.MVO.mkv
Format : Matroska
Format version : Version 2
File size : 3.06 GiB
Duration : 1 h 30 min
Overall bit rate : 4 820 kb/s
Encoded date : UTC 2013-11-07 00:07:17
Writing application : mkvmerge v5.8.0 ('No Sleep / Pillow') built on Sep 2 2012 15:37:04
Writing library : libebml v1.2.3 + libmatroska v1.3.0
Video
ID : 1
Format : AVC
Format/Info : Advanced Video Codec
Format profile : High@L3.1
Format settings : 2 Ref Frames
Format settings, CABAC : No
Format settings, ReFrames : 2 frames
Codec ID : V_MPEG4/ISO/AVC
Duration : 1 h 30 min
Bit rate : 3 892 kb/s
Width : 1 280 pixels
Height : 692 pixels
Display aspect ratio : 1.85:1
Frame rate mode : Constant
Frame rate : 23.976 FPS
Color space : YUV
Chroma subsampling : 4:2:0
Bit depth : 8 bits
Scan type : Progressive
Bits/(Pixel*Frame) : 0.183
Stream size : 2.47 GiB (81%)
Language : English
Default : Yes
Forced : No
Color range : Limited
Color primaries : BT.709
Transfer characteristics : BT.709
Matrix coefficients : BT.709
Audio #1
ID : 2
Format : AC-3
Format/Info : Audio Coding 3
Codec ID : A_AC3
Duration : 1 h 30 min
Bit rate mode : Constant
Bit rate : 448 kb/s
Channel(s) : 6 channels
Channel positions : Front: L C R, Side: L R, LFE
Sampling rate : 48.0 kHz
Frame rate : 31.250 FPS (1536 SPF)
Bit depth : 16 bits
Compression mode : Lossy
Stream size : 291 MiB (9%)
Language : Russian
Service kind : Complete Main
Default : Yes
Forced : No
Audio #2
ID : 3
Format : AC-3
Format/Info : Audio Coding 3
Codec ID : A_AC3
Duration : 1 h 30 min
Bit rate mode : Constant
Bit rate : 384 kb/s
Channel(s) : 6 channels
Channel positions : Front: L C R, Side: L R, LFE
Sampling rate : 48.0 kHz
Frame rate : 31.250 FPS (1536 SPF)
Bit depth : 16 bits
Compression mode : Lossy
Stream size : 249 MiB (8%)
Language : English
Service kind : Complete Main
Default : No
Forced : No
Text #1
ID : 4
Format : UTF-8
Codec ID : S_TEXT/UTF8
Codec ID/Info : UTF-8 Plain Text
Language : Russian
Default : No
Forced : No
Text #2
ID : 5
Format : UTF-8
Codec ID : S_TEXT/UTF8
Codec ID/Info : UTF-8 Plain Text
Language : English
Default : No
Forced : No
Menu
00:00:00.000 : en:Title
00:02:20.000 : en:New Kid
00:06:41.000 : en:Chasing Mullet
00:10:13.000 : en:Vandalism
00:14:42.000 : en:Stakeout
00:17:24.000 : en:Confronting Bullies
00:20:37.000 : en:Mullet's Hideout
00:24:42.000 : en:Delivering Shoes
00:31:35.000 : en:Muckle's 100th
00:37:03.000 : en:Dana's Revenge
00:40:42.000 : en:The Dog Bite
00:49:26.000 : en:Nature Tour
00:54:07.000 : en:Dana's Arrest
00:57:54.000 : en:Overnight Guest
01:00:46.000 : en:Missing Seat
01:04:29.000 : en:The Plan
01:13:28.000 : en:Ground Breaking
01:17:38.000 : en:Roy's Speech
01:24:52.000 : en:Happy Ending
01:26:47.000 : en:Credits


_________________
Проголосуй за трекер Открытый торрент трекер - RUS-MEDIA.ORG

Проголосуй Открытый торрент трекер - RUS-MEDIA.ORG


Вернуться к началу
 Профиль Отправить личное сообщение  
 
   Похожие торренты   Автор   Торрент   Размер 
В этой теме нет новых непрочитанных сообщений. Крик совы / Hoot [комедия, приключения, семейный, 2006] WEB-DLRip-AVC, Mvo

salma3

7 | 9

1.79 ГБ

В этой теме нет новых непрочитанных сообщений. Крик Совы / The Cry of the Owl [Триллер, драма, 2009] BDRip 1080p, Dvo

salma3

5 | 10

8.23 ГБ

В этой теме нет новых непрочитанных сообщений. Крик совы / Le cri du hibou [триллер, драма, мелодрама, 1987] DVD9, Mvo

salma3

0 | 1

4.63 ГБ

В этой теме нет новых непрочитанных сообщений. Приключения Флика / A Bug's Life [Мультфильм, комедия, приключения, семейный, 1998] BDRip 720p, Dub [60 fps]

salma3

6 | 2

5.6 ГБ

В этой теме нет новых непрочитанных сообщений. Приключения кота в сапогах / The Adventures of Puss in Boots [S02] [Мультсериал, комедия, приключения, семейный, 2016] WEBRip 720p, Mvo [NewStudio]

salma3

207 | 32

3.96 ГБ

В этой теме нет новых непрочитанных сообщений. Драка в Бэттл Крик / Battle Creek Brawl [боевик, комедия, криминал, 1980] BDRip 720p, Mvo+Dvo+Avo+Sub

salma3

65 | 41

7.66 ГБ

В этой теме нет новых непрочитанных сообщений. Лунтик и его друзья [01-08x1-473,478-479 из 479+485] (мультфильм, детский, комедия, приключения, семейный, 2006-2016) WEB-DLRip от ExKinoRay

marya111

11 | 35

16.02 ГБ


Начать новую тему Ответить на тему  [ 1 сообщение ] 




Для Мосгорсуда, Роскомнадзора и рекламодателей:: mosgorsud-torrent[собачка]yandex.ru
cron