Торрент файл
скачать торрент магнет ссылка Добавлен: 08 май 2018, 21:17
Размер: 8.23 ГБ
Сидеров: 5
Личеров: 10
Статус: (salma3)
Автор

СообщениеДобавлено: 08 май 2018, 21:17 

Не в сети
Супермодератор
Аватара пользователя
Дата регистрации:
15 фев 2012, 16:44
Возраст: 29
Спасибо: 7401 / 2147
Сообщения: 78470
Год выхода: 2009
Жанр: Триллер, драма
Режиссер: Джэйми Травес

В ролях: Пэдди Консидайн, Джулия Стайлз, Каролин Давернас, Горд Рэнд, Джеймс Гилберт, Арнольд Пиннок, Р.Д. Рейд, Брюс МакФи, Дженнифер Кидд, Питер МакНейл

О фильме:
Фильм основан на повести Патрисии Хайсмит, она рассказывает о Роберте, парне, у которого было много проблем. Вместо того, чтоб их решить, он предпочитает наблюдать за незнакомой ему девушкой издалека, однако, заметив его за этим странным занятием, девушка не вызывает полицию, а впускает его к себе домой.



Страна: Германия, Канада, Франция, Великобритания
Продолжительность: 01:39:39
Перевод: Профессиональный двухголосый (закадровый) (R5)

Файл
Качество: 1080p
Видео: MPEG-4 AVC, 9373 Кбит/с, 1920х816
Звук: Русский (АС3, 6 ch, 448 Кбит/с), английский (DTS, 6 ch, 1536 Кбит/с)
Субтитры: Русские, английские

General
Unique ID : 245277912207777573526401529537058346731 (0xB886CEBDADDD32AA8F1DDB250BC896EB)
Complete name : Крик Совы.2009.1080p..mkv
Format : Matroska
Format version : Version 1
File size : 8.23 GiB
Duration : 1h 39mn
Overall bit rate : 11.8 Mbps
Encoded date : UTC 2009-10-24 10:50:09
Writing application : mkvmerge v2.3.0 ('Freak U') built on Sep 8 2008 18:32:16
Writing library : libebml v0.7.7 + libmatroska v0.8.1
Video
ID : 1
Format : AVC
Format/Info : Advanced Video Codec
Format profile : High@L4.1
Format settings, CABAC : Yes
Format settings, ReFrames : 4 frames
Codec ID : V_MPEG4/ISO/AVC
Duration : 1h 39mn
Bit rate : 9 878 Kbps
Width : 1 920 pixels
Height : 816 pixels
Display aspect ratio : 2.35:1
Frame rate mode : Constant
Frame rate : 24.000 fps
Color space : YUV
Chroma subsampling : 4:2:0
Bit depth : 8 bits
Scan type : Progressive
Bits/(Pixel*Frame) : 0.263
Stream size : 6.71 GiB (81%)
Title : Cry.of.the.Owl.2009
Writing library : x264 core 67 r1153M 7b6ce6a
Encoding settings : cabac=1 / ref=4 / deblock=1:-3:-3 / analyse=0x3:0x113 / me=umh / subme=9 / psy_rd=1.1:0.3 / mixed_ref=1 / me_range=26 / chroma_me=1 / trellis=1 / 8x8dct=1 / cqm=2 / deadzone=21,11 / chroma_qp_offset=-4 / threads=12 / nr=0 / decimate=1 / mbaff=0 / bframes=3 / b_pyramid=1 / b_adapt=1 / b_bias=0 / direct=3 / wpredb=1 / keyint=250 / keyint_min=25 / scenecut=40 / rc=2pass / bitrate=9878 / ratetol=1.0 / qcomp=0.60 / qpmin=10 / qpmax=51 / qpstep=4 / cplxblur=20.0 / qblur=0.5 / ip_ratio=1.40 / pb_ratio=1.30 / aq=1:1.00
Language : English
Default : Yes
Forced : No
Audio #1
ID : 2
Format : DTS
Format/Info : Digital Theater Systems
Mode : 16
Format settings, Endianness : Big
Codec ID : A_DTS
Duration : 1h 39mn
Bit rate mode : Constant
Bit rate : 1 509 Kbps
Channel(s) : 6 channels
Channel positions : Front: L C R, Side: L R, LFE
Sampling rate : 48.0 KHz
Bit depth : 24 bits
Compression mode : Lossy
Stream size : 1.05 GiB (13%)
Title : DTS-HDMA core 1536k
Language : English
Default : Yes
Forced : No
Audio #2
ID : 3
Format : AC-3
Format/Info : Audio Coding 3
Mode extension : CM (complete main)
Format settings, Endianness : Big
Codec ID : A_AC3
Duration : 1h 39mn
Bit rate mode : Constant
Bit rate : 448 Kbps
Channel(s) : 6 channels
Channel positions : Front: L C R, Side: L R, LFE
Sampling rate : 48.0 KHz
Bit depth : 16 bits
Compression mode : Lossy
Stream size : 319 MiB (4%)
Default : No
Forced : No
Text #1
ID : 4
Format : UTF-8
Codec ID : S_TEXT/UTF8
Codec ID/Info : UTF-8 Plain Text
Default : Yes
Forced : No
Text #2
ID : 5
Format : UTF-8
Codec ID : S_TEXT/UTF8
Codec ID/Info : UTF-8 Plain Text
Default : No
Forced : No


_________________
Проголосуй за трекер Открытый торрент трекер - RUS-MEDIA.ORG

Проголосуй Открытый торрент трекер - RUS-MEDIA.ORG


Вернуться к началу
 Профиль Отправить личное сообщение  
 
   Похожие торренты   Автор   Торрент   Размер 
В этой теме нет новых непрочитанных сообщений. Крик совы / Le cri du hibou [триллер, драма, мелодрама, 1987] DVD9, Mvo

salma3

0 | 1

4.63 ГБ

В этой теме нет новых непрочитанных сообщений. Крик совы / Hoot [комедия, приключения, семейный, 2006] WEB-DL 720p, Mvo

salma3

0 | 1

3.06 ГБ

В этой теме нет новых непрочитанных сообщений. Крик совы / Hoot [комедия, приключения, семейный, 2006] WEB-DLRip-AVC, Mvo

salma3

7 | 9

1.79 ГБ

В этой теме нет новых непрочитанных сообщений. Крик / Scream [ужасы, триллер, криминал, 1996] BDRip-HEVC 1080p, Dvo

salma3

28 | 24

5.55 ГБ

В этой теме нет новых непрочитанных сообщений. Крик в общаге / Sorority Row [ужасы, триллер, 2009] HDRip-AVC, Dub

salma3

55 | 13

745.93 МБ

В этой теме нет новых непрочитанных сообщений. Крик 4 / Scream 4 [ужасы, детектив, 2011] BDRip-HEVC 1080p, Dub

salma3

26 | 15

5.72 ГБ

В этой теме нет новых непрочитанных сообщений. Крик 2 / Scream 2 [ужасы, детектив, 1997] BDRip-HEVC 1080p, Dub

salma3

16 | 5

5.38 ГБ


Начать новую тему Ответить на тему  [ 1 сообщение ] 




Для Мосгорсуда, Роскомнадзора и рекламодателей:: mosgorsud-torrent[собачка]yandex.ru
cron