Торрент файл
скачать торрент магнет ссылка Добавлен: 14 май 2018, 21:03
Размер: 9.79 ГБ
Сидеров: 2
Личеров: 0
Статус: (salma3)
Автор

СообщениеДобавлено: 14 май 2018, 21:03 

Не в сети
Супермодератор
Аватара пользователя
Дата регистрации:
15 фев 2012, 16:44
Возраст: 29
Спасибо: 7401 / 2147
Сообщения: 78470
Год выпуска: 1999
Жанр: Мелодрама, комедия, история
Режиссёр: Лина Вертмюллер

В ролях: Сержио Ассизи, Габриэлла Пессион, Николь Гримаудо, Адриано Панталео, Лола Паньяни, Карло Каприоли, Мойра Грасси, Ванесса Сабет, Мэтт Патрези

О фильме:
Конец 18-го века, Неаполь под властью династии Бурбонов. Молодой король Фердинанд по прозвищу Длинный нос, должен жениться на хорошенькой 16-летней Каролине, дочери австрийской императрицы Марии-Терезы. Исключительно в соответствии с государственными соображениями и ради политической выгоды. У этого брачного союза не было никаких шансов на успех. Но к удивлению всех, включая и самих молодых супругов, у них нашелся один общий интерес. Со всем пылом страсти Фердинанд и Каролина бросились на шелковые простыни выполнять свои королевские обязанности. Они стали счастливыми любовниками, и двор Неаполя окунулся в пышные празднества. А в это же время во Франции разгорался революционный пожар, распространившийся вскоре по всей Европе.



Выпущено: Франция, Италия, Canal+, Immagine e Cinema, Medusa Produzione
Продолжительность: 01:47:50
Перевод: Профессиональный двухголосый

Файл
Качество: BDRip 1080p
Видео:MPEG-4 AVC, 12,6 Мбит/сек, 1920x1040, 23,976 кадра/сек
Аудио #1: AC3, 2 ch, 192 Кбит/сек | Русский, профессиональный (двухголосый закадровый)
Аудио #2: AC3, 2 ch, 224 Кбит/сек | Итальянский, оригинал
Субтитры: Английские
Навигация по главам: Есть

x264 [info]: frame I:952 Avg QP:16.28 size:329360
x264 [info]: frame P:32986 Avg QP:19.23 size:129192
x264 [info]: frame B:121197 Avg QP:20.96 size: 46218
-----------------------------------------------------
Общее
Уникальный идентификатор : 238546815994905533937652804535595058018 (0xB376721340D856E5B20A984D1D0C4362)
Полное имя : Фердинанд.и.Каролина.1999.BDRip.1080p.KORSAR.mkv
Формат : Matroska
Версия формата : Version 2
Размер файла : 9,79 Гбайт
Продолжительность : 1 ч. 47 м.
Общий поток : 13,0 Мбит/сек
Дата кодирования : UTC 2018-05-13 15:13:00
Программа кодирования : mkvmerge v5.8.0 ('No Sleep / Pillow') built on Sep 2 2012 15:37:04
Библиотека кодирования : libebml v1.2.3 + libmatroska v1.3.0

Видео
Идентификатор : 1
Формат : AVC
Формат/Информация : Advanced Video Codec
Профиль формата : High@L4.1
Настройки формата : CABAC / 4 Ref Frames
Параметр CABAC формата : Да
Параметр RefFrames формата : 4 кадра
Идентификатор кодека : V_MPEG4/ISO/AVC
Продолжительность : 1 ч. 47 м.
Битрейт : 12,6 Мбит/сек
Ширина : 1920 пикселей
Высота : 1040 пикселей
Соотношение сторон : 1,85:1
Режим частоты кадров : Постоянный
Частота кадров : 23,976 (24000/1001) кадра/сек
Цветовое пространство : YUV
Субдискретизация насыщенности : 4:2:0
Битовая глубина : 8 бит
Тип развёртки : Прогрессивная
Бит/(Пиксели*Кадры) : 0.263
Размер потока : 9,28 Гбайт (95%)
Заголовок : RIP | MZMA
Библиотека кодирования : x264 core 152 r2851kMod ba24899
Настройки программы : cabac=1 / ref=4 / deblock=1:-2:-2 / analyse=0x3:0x113 / me=umh / subme=11 / psy=1 / fade_compensate=0.00 / psy_rd=1.00:0.00 / mixed_ref=1 / me_range=64 / chroma_me=1 / trellis=2 / 8x8dct=1 / cqm=0 / deadzone=21,11 / fast_pskip=0 / chroma_qp_offset=-2 / threads=6 / lookahead_threads=1 / sliced_threads=0 / nr=0 / decimate=0 / interlaced=0 / bluray_compat=0 / constrained_intra=0 / bframes=16 / b_pyramid=2 / b_adapt=2 / b_bias=0 / direct=3 / weightb=1 / open_gop=0 / weightp=2 / keyint=240 / keyint_min=23 / scenecut=40 / intra_refresh=0 / rc_lookahead=40 / rc=2pass / mbtree=0 / bitrate=12587 / ratetol=1.0 / qcomp=0.60 / qpmin=0 / qpmax=69 / qpstep=4 / cplxblur=20.0 / qblur=0.5 / vbv_maxrate=50000 / vbv_bufsize=62500 / nal_hrd=none / filler=0 / ip_ratio=1.40 / pb_ratio=1.30 / aq=3:0.80
Язык : Italian
Default : Да
Forced : Нет
Цветовой диапазон : Limited
Основные цвета : BT.709
Характеристики трансфера : BT.709
Коэффициенты матрицы : BT.709

Аудио #1
Идентификатор : 2
Формат : AC-3
Формат/Информация : Audio Coding 3
Идентификатор кодека : A_AC3
Продолжительность : 1 ч. 47 м.
Вид битрейта : Постоянный
Битрейт : 192 Кбит/сек
Каналы : 2 канала
Расположение каналов : Front: L R
Частота : 48,0 КГц
Частота кадров : 31,250 кадров/сек (1536 SPF)
Битовая глубина : 16 бит
Метод сжатия : С потерями
Размер потока : 148 Мбайт (1%)
Заголовок : DVO
Язык : Russian
По умолчанию : Да
Принудительно : Нет

Аудио #2
Идентификатор : 3
Формат : AC-3
Формат/Информация : Audio Coding 3
Идентификатор кодека : A_AC3
Продолжительность : 1 ч. 47 м.
Вид битрейта : Постоянный
Битрейт : 224 Кбит/сек
Каналы : 2 канала
Расположение каналов : Front: L R
Частота : 48,0 КГц
Частота кадров : 31,250 кадров/сек (1536 SPF)
Битовая глубина : 16 бит
Метод сжатия : С потерями
Размер потока : 173 Мбайт (2%)
Заголовок : Originale
Язык : Italian
По умолчанию : Нет
Принудительно : Нет

Текст
Идентификатор : 4
Формат : UTF-8
Идентификатор кодека : S_TEXT/UTF8
Идентификатор кодека/Информация : UTF-8 Plain Text
Язык : English
По умолчанию : Нет
Принудительно : Нет

Меню
00:00:00.000 : en:Chapter 1
00:11:33.650 : en:Chapter 2
00:22:14.500 : en:Chapter 3
00:34:20.225 : en:Chapter 4
00:46:46.679 : en:Chapter 5
00:59:35.113 : en:Chapter 6
01:08:11.963 : en:Chapter 7
01:20:27.113 : en:Chapter 8
01:31:17.180 : en:Chapter 9
01:39:13.781 : en:Chapter 10


Спасибо - FREEDONOR, за исходник видео и оригинальную итальянскую аудио дорожку.


_________________
Проголосуй за трекер Открытый торрент трекер - RUS-MEDIA.ORG

Проголосуй Открытый торрент трекер - RUS-MEDIA.ORG


Вернуться к началу
 Профиль Отправить личное сообщение  
 
   Похожие торренты   Автор   Торрент   Размер 
В этой теме нет новых непрочитанных сообщений. Фердинанд и Каролина / Ferdinando e Carolina [Мелодрама, комедия, история, 1999] BDRip 720p, Dvo

salma3

0 | 1

5.13 ГБ

В этой теме нет новых непрочитанных сообщений. Фердинанд и Каролина / Ferdinando e Carolina [Мелодрама, комедия, история, 1999] BDRemux 1080p, Mvo

salma3

0 | 0

17.41 ГБ

В этой теме нет новых непрочитанных сообщений. Фердинанд и Каролина / Ferdinando e Carolina [Мелодрама, комедия, 1999] DVDRip, Mvo

salma3

0 | 0

743.73 МБ

В этой теме нет новых непрочитанных сообщений. История игрушек 2 / Toy Story 2 [мультфильм, фэнтези, комедия, 1999] BDRip 1080p, Dub

salma3

28 | 11

4.37 ГБ

В этой теме нет новых непрочитанных сообщений. Это всё она / She's All That [мелодрама, комедия, 1999] BDRip 1080p, Mvo

salma3

0 | 0

8.05 ГБ

В этой теме нет новых непрочитанных сообщений. Идеальный муж / An Ideal Husband [мелодрама, комедия, 1999] BDRip 1080p, Mvo

salma3

0 | 3

8.6 ГБ

В этой теме нет новых непрочитанных сообщений. Выскочка / Election [драма, мелодрама, комедия, 1999] BDRip 1080p, Dvo

salma3

5 | 1

7.82 ГБ


Начать новую тему Ответить на тему  [ 1 сообщение ] 




Для Мосгорсуда, Роскомнадзора и рекламодателей:: mosgorsud-torrent[собачка]yandex.ru
cron