Торрент файл
скачать торрент магнет ссылка Добавлен: 16 май 2018, 17:02
Размер: 35.49 ГБ
Сидеров: 4
Личеров: 18
Статус: (salma3)
Автор

СообщениеДобавлено: 16 май 2018, 17:02 

Не в сети
Супермодератор
Аватара пользователя
Дата регистрации:
15 фев 2012, 16:44
Возраст: 29
Спасибо: 7401 / 2147
Сообщения: 78470
Год выхода: 2011
Жанр: Боевик, триллер, криминал
Режиссер: Гай Ричи

В ролях: Роберт Дауни мл., Джуд Лоу, Нуми Рапас, Джаред Харрис, Пол Андерсон, Стивен Фрай, Рэйчел МакАдамс, Келли Райлли, Джеральдин Джеймс, Эдди Марсан

О фильме:
1891 год. В Вене и Страсбурге проходит серия терактов, организованных анархистами или националистами, а по всей Европе происходят таинственные убийства. Шерлок Холмс считает, что за всем этим стоит профессор Джеймс Мориарти - математический гений, автор знаменитых лекций и трудов.



Страна: США
Продолжительность: 02:08:44
Перевод: Дублированный, авторский

Файл
Кодек: H.265
Качество: WEB-DL 2160p
Видео: HEVC HDR, 34.0 Mбит/с, 3840x1600, 23.976 кадр/с
Звук:
Русский (AC3, 6 ch, 448 Кбит/с) / Дублированный (Blu-ray CEE)
Русский (DTS, 6 ch, 1509 Кбит/с) / Авторский (Сербин)
Русский (DTS, 6 ch, 1509 Кбит/с) / Авторский (Гаврилов)
Украинский (AC3, 6 ch, 448 Кбит/с) / Дублированный (Blu-ray CEE)
Английский (DTS, 6 ch, 1509 Кбит/с)
Субтитры: Русские (Forced,Full,Voronine), украинские (Forced,Full), английские (Full,SDH)
Семпл
General
Unique ID : 100586754666953754492548765139366421851 (0x4BAC4DE56FE3EBFFE14E4F306D7DA55B)
Complete name : D:uTorrentSherlock.Holmes.A.Game.of.Shadows.2011.2160p.HDR.WEB-DL.MediaClub.mkv
Format : Matroska
Format version : Version 4 / Version 2
File size : 35.5 GiB
Duration : 2 h 8 min
Overall bit rate : 39.5 Mb/s
Encoded date : UTC 2018-05-16 07:40:47
Writing application : mkvmerge v19.0.0 ('Brave Captain') 64-bit
Writing library : libebml v1.3.5 + libmatroska v1.4.8
Cover : Yes
Attachments : cover.jpg
Video
ID : 1
Format : HEVC
Format/Info : High Efficiency Video Coding
Commercial name : HDR10
Format profile : Main 10@L5@Main
Codec ID : V_MPEGH/ISO/HEVC
Duration : 2 h 8 min
Bit rate : 34.0 Mb/s
Width : 3 840 pixels
Height : 2 160 pixels
Display aspect ratio : 16:9
Frame rate mode : Constant
Frame rate : 23.976 (24000/1001) FPS
Color space : YUV
Chroma subsampling : 4:2:0
Bit depth : 10 bits
Bits/(Pixel*Frame) : 0.171
Stream size : 30.6 GiB (86%)
Title : WEB-DL.2160p.HDR by Silverok
Default : Yes
Forced : No
Color range : Limited
Color primaries : BT.2020
Transfer characteristics : PQ
Matrix coefficients : BT.2020 non-constant
Mastering display color primaries : BT.709
Mastering display luminance : min: 0.0050 cd/m2, max: 3999 cd/m2
Maximum Content Light Level : 4000 cd/m2
Maximum Frame-Average Light Level : 1000 cd/m2
Audio #1
ID : 2
Format : AC-3
Format/Info : Audio Coding 3
Codec ID : A_AC3
Duration : 2 h 8 min
Bit rate mode : Constant
Bit rate : 448 kb/s
Channel(s) : 6 channels
Channel positions : Front: L C R, Side: L R, LFE
Sampling rate : 48.0 kHz
Frame rate : 31.250 FPS (1536 SPF)
Bit depth : 16 bits
Compression mode : Lossy
Stream size : 413 MiB (1%)
Title : Дубляж, Blu-ray CEE
Language : Russian
Service kind : Complete Main
Default : Yes
Forced : No
Audio #2
ID : 3
Format : DTS
Format/Info : Digital Theater Systems
Codec ID : A_DTS
Duration : 2 h 8 min
Bit rate mode : Constant
Bit rate : 1 509 kb/s
Channel(s) : 6 channels
Channel positions : Front: L C R, Side: L R, LFE
Sampling rate : 48.0 kHz
Frame rate : 93.750 FPS (512 SPF)
Bit depth : 24 bits
Compression mode : Lossy
Stream size : 1.36 GiB (4%)
Title : Авторский одноголосый закадровый (Сербин)
Language : Russian
Default : No
Forced : No
Audio #3
ID : 4
Format : DTS
Format/Info : Digital Theater Systems
Codec ID : A_DTS
Duration : 2 h 8 min
Bit rate mode : Constant
Bit rate : 1 509 kb/s
Channel(s) : 6 channels
Channel positions : Front: L C R, Side: L R, LFE
Sampling rate : 48.0 kHz
Frame rate : 93.750 FPS (512 SPF)
Bit depth : 24 bits
Compression mode : Lossy
Stream size : 1.36 GiB (4%)
Title : Авторский одноголосый закадровый (Гаврилов)
Language : Russian
Default : No
Forced : No
Audio #4
ID : 5
Format : AC-3
Format/Info : Audio Coding 3
Codec ID : A_AC3
Duration : 2 h 8 min
Bit rate mode : Constant
Bit rate : 448 kb/s
Channel(s) : 6 channels
Channel positions : Front: L C R, Side: L R, LFE
Sampling rate : 48.0 kHz
Frame rate : 31.250 FPS (1536 SPF)
Bit depth : 16 bits
Compression mode : Lossy
Stream size : 413 MiB (1%)
Title : Дубляж, Blu-ray CEE
Language : Ukrainian
Service kind : Complete Main
Default : No
Forced : No
Audio #5
ID : 6
Format : DTS
Format/Info : Digital Theater Systems
Codec ID : A_DTS
Duration : 2 h 8 min
Bit rate mode : Constant
Bit rate : 1 509 kb/s
Channel(s) : 6 channels
Channel positions : Front: L C R, Side: L R, LFE
Sampling rate : 48.0 kHz
Frame rate : 93.750 FPS (512 SPF)
Bit depth : 24 bits
Compression mode : Lossy
Stream size : 1.36 GiB (4%)
Language : English
Default : No
Forced : No
Text #1
ID : 7
Format : UTF-8
Codec ID : S_TEXT/UTF8
Codec ID/Info : UTF-8 Plain Text
Duration : 1 h 41 min
Bit rate : 1 b/s
Count of elements : 31
Stream size : 1.28 KiB (0%)
Title : Forced
Language : Russian
Default : Yes
Forced : Yes
Text #2
ID : 8
Format : UTF-8
Codec ID : S_TEXT/UTF8
Codec ID/Info : UTF-8 Plain Text
Duration : 1 h 59 min
Bit rate : 61 b/s
Count of elements : 1257
Stream size : 53.9 KiB (0%)
Title : Full
Language : Russian
Default : No
Forced : No
Text #3
ID : 9
Format : UTF-8
Codec ID : S_TEXT/UTF8
Codec ID/Info : UTF-8 Plain Text
Duration : 1 h 59 min
Bit rate : 79 b/s
Count of elements : 1180
Stream size : 69.7 KiB (0%)
Title : Voronine
Language : Russian
Default : No
Forced : No
Text #4
ID : 10
Format : UTF-8
Codec ID : S_TEXT/UTF8
Codec ID/Info : UTF-8 Plain Text
Duration : 1 h 41 min
Bit rate : 1 b/s
Count of elements : 30
Stream size : 1.29 KiB (0%)
Title : Forced
Language : Ukrainian
Default : No
Forced : No
Text #5
ID : 11
Format : UTF-8
Codec ID : S_TEXT/UTF8
Codec ID/Info : UTF-8 Plain Text
Duration : 1 h 59 min
Bit rate : 78 b/s
Count of elements : 1178
Stream size : 68.8 KiB (0%)
Title : Full
Language : Ukrainian
Default : No
Forced : No
Text #6
ID : 12
Format : UTF-8
Codec ID : S_TEXT/UTF8
Codec ID/Info : UTF-8 Plain Text
Duration : 1 h 59 min
Bit rate : 48 b/s
Count of elements : 1180
Stream size : 42.8 KiB (0%)
Title : Full
Language : English
Default : No
Forced : No
Text #7
ID : 13
Format : UTF-8
Codec ID : S_TEXT/UTF8
Codec ID/Info : UTF-8 Plain Text
Duration : 2 h 8 min
Bit rate : 50 b/s
Count of elements : 1441
Stream size : 47.5 KiB (0%)
Title : SDH
Language : English
Default : No
Forced : No

Релиз от: | Silverok


_________________
Проголосуй за трекер Открытый торрент трекер - RUS-MEDIA.ORG

Проголосуй Открытый торрент трекер - RUS-MEDIA.ORG


Вернуться к началу
 Профиль Отправить личное сообщение  
 
   Похожие торренты   Автор   Торрент   Размер 
В этой теме нет новых непрочитанных сообщений. Шерлок / Sherlock [S01-04] [Триллер, драма, криминал, 2010-2017] BDRip, Dub [Первый канал]

salma3

0 | 73

20.83 ГБ

В этой теме нет новых непрочитанных сообщений. Шерлок / Sherlock [04x00-03 из 03] [триллер, драма, криминал, детектив, 2017] HDTVRip [Первый канал]

Dracon

421 | 354

5.44 ГБ

В этой теме нет новых непрочитанных сообщений. Шерлок / Sherlock [S01-04] [Триллер, драма, криминал, детекти, 2010-2017] BDRip, WEB-DLRip, Dub [Первый канал]

salma3

307 | 481

19.12 ГБ

В этой теме нет новых непрочитанных сообщений. Игра Эндера / Ender's Game [Фантастика, боевик, приключения, 2013] UHD BDRemux 2160p, Dub [4K]

salma3

14 | 9

53.46 ГБ

В этой теме нет новых непрочитанных сообщений. Игра окончена, чувак! / Game Over, Man! [Боевик, комедия, 2018] WEBRip 2160p, Mvo [BaibaKo]

salma3

0 | 0

18.17 ГБ

В этой теме нет новых непрочитанных сообщений. Игра окончена, чувак! / Game Over, Man! [Боевик, комедия, 2018] WEBRip 2160p, Mvo [BaibaKo]

salma3

0 | 0

22 ГБ

В этой теме нет новых непрочитанных сообщений. Шерлок / Sherlock [04x01 из 03] (триллер, драма, криминал, детектив, 2017) HDTVRip 1080p от qqss44 | Первый канал | Локализованная версия

marya111

1662 | 223

5.18 ГБ


Начать новую тему Ответить на тему  [ 1 сообщение ] 




Для Мосгорсуда, Роскомнадзора и рекламодателей:: mosgorsud-torrent[собачка]yandex.ru
cron