Торрент файл
скачать торрент магнет ссылка Добавлен: 17 май 2018, 20:27
Размер: 20.13 ГБ
Сидеров: 0
Личеров: 0
Статус: (salma3)
Автор

СообщениеДобавлено: 17 май 2018, 20:27 

В сети
Супермодератор
Аватара пользователя
Дата регистрации:
15 фев 2012, 16:44
Возраст: 29
Спасибо: 7400 / 2147
Сообщения: 78337
Год выхода: 1965
Жанр: драма, приключения
Режиссер: Ричард Брукс

В ролях: Питер О’Тул, Джеймс Мейсон, Курд Юргенс, Илай Уоллак, Джек Хоукинс, Пол Лукас, Далия Лави, Аким Тамирофф, Дзюдзо Итами, Тацуо Сайто

О фильме:
Офицер торгового флота Джим Берк в сильный шторм покидает корабль, не позаботившись о пассажирах. Их спасает французское судно. Джим оставляет службу, понимая, что опозорил мундир офицера. Мучаясь от угрызений совести, он ищет случая искупить свою вину. Судьба приводит его в Азию. Здесь он возглавляет борьбу туземцев против местного феодала и становится их героем...



Страна: Великобритания, США
Продолжительность: 02:34:18
Перевод: Профессиональный многоголосый, закадровый (Петербург - 5-й канал)
Субтитры: английские, французские

Файл
Качество: BDRemux 1080p
Видео: AVC/H.264, 1920х1080, ~16.9 Mb/s
Аудио: 1 AC3, 2 ch, 192 kbps - Русский
Аудио: 2 DTS-HD MA, 2 ch, 1611 kbps - Английский
Complete name : Lord.Jim.1965.BDRemux.NNMClub.mkv
Format : Matroska
Format version : Version 4 / Version 2
File size : 20.1 GiB
Duration : 2 h 34 min
Overall bit rate mode : Variable
Overall bit rate : 18.7 Mb/s
Movie name : Lord Jim.1965.BDRemux
Encoded date : UTC 2018-04-28 12:46:29
Writing application : mkvmerge v8.3.0 ('Over the Horizon') 64bit
Writing library : libebml v1.3.1 + libmatroska v1.4.2
Video
ID : 1
Format : AVC
Format/Info : Advanced Video Codec
Format profile : High@L4.1
Format settings : CABAC / 2 Ref Frames
Format settings, CABAC : Yes
Format settings, ReFrames : 2 frames
Codec ID : V_MPEG4/ISO/AVC
Duration : 2 h 34 min
Bit rate mode : Variable
Bit rate : 16.9 Mb/s
Width : 1 920 pixels
Height : 1 080 pixels
Display aspect ratio : 16:9
Frame rate mode : Constant
Frame rate : 23.976 (24000/1001) FPS
Color space : YUV
Chroma subsampling : 4:2:0
Bit depth : 8 bits
Scan type : Progressive
Bits/(Pixel*Frame) : 0.340
Stream size : 18.2 GiB (90%)
Title : Lord Jim.1965.BDRemux
Language : English
Default : Yes
Forced : No
Audio #1
ID : 2
Format : AC-3
Format/Info : Audio Coding 3
Codec ID : A_AC3
Duration : 2 h 34 min
Bit rate mode : Constant
Bit rate : 192 kb/s
Channel(s) : 2 channels
Channel positions : Front: L R
Sampling rate : 48.0 kHz
Frame rate : 31.250 FPS (1536 SPF)
Bit depth : 16 bits
Compression mode : Lossy
Stream size : 212 MiB (1%)
Title : AC3 2.0 @ 192 kbps - MVO, Петербург 5-й канал
Language : Russian
Service kind : Complete Main
Default : Yes
Forced : No
Audio #2
ID : 3
Format : DTS
Format/Info : Digital Theater Systems
Format profile : MA / Core
Codec ID : A_DTS
Duration : 2 h 34 min
Bit rate mode : Variable / Constant
Bit rate : 1 611 kb/s / 1 509 kb/s
Channel(s) : 2 channels
Channel positions : / Front: L R
Sampling rate : 48.0 kHz
Frame rate : 93.750 FPS (512 SPF)
Bit depth : 16 bits
Compression mode : Lossless / Lossy
Stream size : 1.74 GiB (9%)
Title : DTS-HD MA 2.0 @ 1611 kbps - Original
Language : English
Default : No
Forced : No
Text #1
ID : 4
Format : UTF-8
Codec ID : S_TEXT/UTF8
Codec ID/Info : UTF-8 Plain Text
Duration : 2 h 30 min
Bit rate : 43 b/s
Count of elements : 1247
Stream size : 47.8 KiB (0%)
Language : English
Default : No
Forced : No
Text #2
ID : 5
Format : UTF-8
Codec ID : S_TEXT/UTF8
Codec ID/Info : UTF-8 Plain Text
Duration : 2 h 33 min
Bit rate : 35 b/s
Count of elements : 1370
Stream size : 40.5 KiB (0%)
Language : French
Default : No
Forced : No
Menu
00:00:00.000 : en:Chapter 1
00:02:49.419 : en:Chapter 2
00:07:50.470 : en:Chapter 3
00:21:33.209 : en:Chapter 4
00:33:04.232 : en:Chapter 5
00:45:21.344 : en:Chapter 6
00:56:09.992 : en:Chapter 7
01:10:55.918 : en:Chapter 8
01:17:34.400 : en:Chapter 9
01:29:21.815 : en:Chapter 10
01:41:46.225 : en:Chapter 11
01:47:16.096 : en:Chapter 12
01:58:15.922 : en:Chapter 13
02:05:43.911 : en:Chapter 14
02:18:10.532 : en:Chapter 15
02:30:34.317 : en:Chapter 16


_________________
Проголосуй за трекер Открытый торрент трекер - RUS-MEDIA.ORG

Проголосуй Открытый торрент трекер - RUS-MEDIA.ORG


Вернуться к началу
 Профиль Отправить личное сообщение  
 
   Похожие торренты   Автор   Торрент   Размер 
В этой теме нет новых непрочитанных сообщений. Лорд Вор / The Thief Lord [фэнтези, приключения, семейный, 2006] DVD5, Mvo

salma3

16 | 7

4.25 ГБ

В этой теме нет новых непрочитанных сообщений. Ураган над Ямайкой / A High Wind in Jamaica [Драма, приключения, 1965] BDRemux 1080p, Avo

salma3

0 | 0

19.73 ГБ

В этой теме нет новых непрочитанных сообщений. Воздушные приключения / Those Magnificent Men in Their Flying Machines [Комедия, приключения, семейный, 1965] BDRemux 1080p, Dub

salma3

0 | 0

35.17 ГБ

В этой теме нет новых непрочитанных сообщений. Властелин войны / The War Lord [драма, история, 1965] HDRip, Avo

salma3

67 | 6

2.17 ГБ

В этой теме нет новых непрочитанных сообщений. Отвращение / Repulsion [Ужасы, триллер, драма, детектив, 1965] BDRemux 1080p, Mvo

salma3

11 | 11

26.08 ГБ

В этой теме нет новых непрочитанных сообщений. Фантазм 3 / Phantasm III: Lord of the Dead [Фэнтези, Ужасы, Мистика, 1994] BDRemux 1080p, Mvo

salma3

0 | 0

25.74 ГБ

В этой теме нет новых непрочитанных сообщений. Повелитель Мух / Lord Of The Flies [триллер, драма, приключения, 1990] BDRip 1080p, Mvo+Sub

salma3

140 | 25

7.77 ГБ


Начать новую тему Ответить на тему  [ 1 сообщение ] 




Для Мосгорсуда, Роскомнадзора и рекламодателей:: mosgorsud-torrent[собачка]yandex.ru
cron